новый адрес пиратбит piratbit
Мега распродажа FORZA HORIZON 4 ULTIMATE+ВСЕ DLC+ОНЛАЙН всего за 499р. 349 руб. (супер цена). Внимание количество ограничено!!!

iTunes

1+1

iTunes

мы

iTunes

1

iTunes

Чернобыль

iTunes

Ральф против интернета

Лицензия

ПШазам

Лицензия

Игра престолов

Лицензия

30
pack

ВАЖНО

!!Акция!!

Alien_RageХит недели

RePack

Resident Evil 21

ИГРА 18+

pack

RePack

Metro:Exodus

!!Акция!!

Alien_Rage

RePack

fifa19

RePack

Assassins Creed: Odyssey

RePack

NEED FOR SPEED™ PAYBACK

3 сезон

9 сезон

Бесстыжие 9 сезон

Все сериалы

все сериалы на PB.wtf

RePack

FAR CRY 5
Ребята, катастрофически не хватает 1900р. для оплаты серверов за Октябрь (всвязи с блокировками трафик упал в 3 раза), 1-2р., выручайте.
  

Рейк / Rake / Сезон: 1 / серии 01-13 из 13 (Чери Ноулан / Cherie Nowlan, Сэм Рэйми / Sam Raimi, Адам Аркин / Adam Arkin) [ 2014 , США , драма, комедия , WEB-DL720p ] MVO (AlexFilm) pb.wtf

Рейк через торрент pb.wtf

Размер: 19.11 GB | Добавлен: 5 лет 4 мес. назад | Торрент скачан:46 раз
Скачать  

08-04-2014 04:44 Рейк Скачать торрент  

Рейк / Rake
«Не судите»
Год выпуска: 2014
Страна: США
Жанр: драма, комедия
Продолжительность: ~00:43:39 (серия)
Перевод: Профессиональный (многоголосый, закадровый)(AlexFilm)
Субтитры: Нет
Режиссер: Чери Ноулан / Cherie Nowlan, Сэм Рэйми / Sam Raimi, Адам Аркин / Adam Arkin
Сценарий: Эллисон Эбнер / Allison Abner, Кит Босс / Kit Boss, Сэм Кэтлин / Sam Catlin, Питер Дункан / Peter Duncan, Сара Гудман / Sara Goodman
Продюсер: Deen Dioria, Сэм Кэтлин / Sam Catlin, Дори Чейз / Dauri Chase, Leslie Dennis, Сара Гудман / Sara Goodman
Оператор: Грег Гардинер / Greg Gardiner, Тим Сёрстедт / Tim Suhrstedt
Композитор: Патрик Кэйрд / Patric Caird
В ролях:
Грег Киннер (Keegan Deane), Миранда Отто (Maddy Deane), Джон Ортис (Ben Leon), Некар Задеган (Scarlet Leon), Бояна Новакович (Melissa «Mikki» Partridge), Тара Саммерс (Leanne Zander), Йен Коллетти (Finn Deane), Дэвид Харбор (David Potter), Кимберли Хоторн (Gloria Barzmann), Омар Дж. Дорси (Roy), Джеффри Нордлинг (Bruce), Дженна Ортега (Zoe Leon)
Мировая премьера: 23 января 2014
Описание:
Дин Киган – очень хороший адвокат. Правда, с клиентами ему не очень-то везет. Вот недавно был стеснительный зоофил, потом японский торговец, который в качестве гонорара выслал корабль свежевыловленного тунца. А до него был еще серийный убийца, который, отсидев в тюрьме 30 лет, заявил, что он на самом деле невиновен.
Разбираясь в подобных делах, Дин неожиданно находит доказательства причастности к скандальным преступлениям мэра Лос-Анджелеса и шефа городской полиции. Юрист уже собирается готовить крестовый поход против власти, но тут перед ним встает выбор - получить огромное вознаграждение и славу или добиться справедливости и очистить совесть? В это же время мафиози, у которого Дин как-то одолжил кругленькую сумму, начинает настоятельно требовать вернуть долг.
Рейтинг
kinopoisk.ru: 7.159 (186)
imdb.com: 7.00 (1511)
Качество: WEB-DL720p
Формат: MKV
Видео кодек: AVC
Аудио кодек: AC3
Видео: 3848 Кбит/сек, 1280*718 (16:9), в 23,976 кадра/сек, AVC
Аудио №1: Русский 384 Кбит/сек, 48,0 КГц, 16 бит, 6 каналов, AC-3
Аудио №2: Английский 384 Кбит/сек, 48,0 КГц, 16 бит, 6 каналов, AC-3
Раздача ведётся путём добавления новых серийДобалена 13(6) серия (09.07.2014)Просьба перекачать торрент файл

Внимание! Раздача ведётся путём добавления новых серий; при каждом добавлении создётся новый торрент. Чтобы начать докачку новой серии, пользователям необходимо сделать следующее:
(1) остановить скачивание,
(2) удалить старый торрент у себя из клиента (старые серии удалять не надо),
(3) скачать новый торрент и запустить его у себя в клиенте вместо старого, при этом указать клиенту путь в старую папку куда и должно происходить скачивание новых серий.
Ваш клиент при этом должен произвести хеширование (проверку) старой папки (если не производит сам - помогите ему сделать это), и будет докачивать только те серии которых у вас ещё нет. Старые серии при этом не удаляются, а продолжают раздаваться!
Eсли вы уже удалили старые серии, то предотвратить повторную закачку старых серий можно, отжав галочку в соответсвующих местах при запуске нового торрента. По возможности, желательно не удалять старые серии как можно дольше чтобы релизёр не столько продолжал раздавать старые серии, а смог сконцентрироваться на новых.

Общее
Кол-во : 284
Кол-во потоков такого типа : 1
Тип потока : General
Тип потока : Общее
Идентификатор типа потока : 0
Inform : Matroska: 1,50 Гбайт, 45 м.
Уникальный идентификатор : 246483389795523814666448625248392292897
Уникальный идентификатор : 246483389795523814666448625248392292897 (0xB96EF95FEFC8146FB33DB9A25599AA21)
Кол-во видеопотоков : 1
Кол-во аудиопотоков : 2
Video_Format_List : AVC
Video_Format_WithHint_List : AVC
Видеокодеки : AVC
Video_Language_List : English
Audio_Format_List : AC-3 / AC-3
Audio_Format_WithHint_List : AC-3 / AC-3
Аудиокодеки : AC3 / AC3
Audio_Language_List : Russian / English
Полное имя : H:\ТОРРЕНТЫ\Рейк. Сезон 1.720p\Рейк. Сезон 1.720p.s01e01).mkv
Имя папки : H:\ТОРРЕНТЫ\Рейк. Сезон 1.720p
Имя файла : Рейк. Сезон 1.720p.s01e01)
Расширение : mkv
Формат : Matroska
Формат : Matroska
Формат/Ссылка : http://packs.matroska.org/
Формат/Используется в : mkv mk3d mka mks
Коммерческое название : Matroska
Версия формата : Version 4 / Version 2
Кодек : Matroska
Кодек : Matroska
Кодек/Ссылка : http://packs.matroska.org/
Кодек/Используется в : mkv mk3d mka mks
Размер файла : 1608181185
Размер файла : 1,50 Гбайт
Размер файла : 1 Гбайт
Размер файла : 1,5 Гбайт
Размер файла : 1,50 Гбайт
Размер файла : 1,498 Гбайт
Продолжительность : 2731456
Продолжительность : 45 м.
Продолжительность : 45 м. 31 с. 456 мс.
Продолжительность : 45 м.
Продолжительность : 00:45:31.456
Общий поток : 4710107
Общий поток : 4710 Кбит/сек
Размер потока : 32010545
Размер потока : 30,5 Мбайт (2%)
Размер потока : 31 Мбайт
Размер потока : 31 Мбайт
Размер потока : 30,5 Мбайт
Размер потока : 30,53 Мбайт
Размер потока : 30,5 Мбайт (2%)
Пропорции потока : 0.01990
Заголовок : Rake (US) 1x01 Serial Killer @ AlexFilm
Название фильма : Rake (US) 1x01 Serial Killer @ AlexFilm
Дата кодирования : UTC 2014-01-26 17:03:10
Дата файла : UTC 2014-04-08 04:09:44.727
Дата файла (местная) : 2014-04-08 11:09:44.727
Дата изменения файла : UTC 2014-04-07 07:40:54.779
Дата изменения файла (местная) : 2014-04-07 14:40:54.779
Программа кодирования : mkvmerge v6.6.0 ('The Edge Of The In Between') built on Dec 1 2013 17:55:00
Библиотека кодирования : libebml v1.3.0 + libmatroska v1.4.1
Библиотека кодирования : libebml v1.3.0 + libmatroska v1.4.1

Видео
Кол-во : 271
Кол-во потоков такого типа : 1
Тип потока : Video
Тип потока : Видео
Идентификатор типа потока : 0
StreamOrder : 0
Inform : English, 3848 Кбит/сек, 1280*718 (16:9), в 23,976 кадра/сек, AVC (High@L3.1) (2 Ref Frames)
Идентификатор : 1
Идентификатор : 1
Уникальный идентификатор : 11810620007266633610
Формат : AVC
Формат/Информация : Advanced Video Codec
Формат/Ссылка : http://developers.videolan.org/x264.html
Коммерческое название : AVC
Профиль формата : High@L3.1
Настройки формата : 2 Ref Frames
Параметр CABAC формата : No
Параметр CABAC формата : Нет
Параметр ReFrames формата : 2
Параметр ReFrames формата : 2 кадра
Интернет-тип носителя : video/H264
Идентификатор кодека : V_MPEG4/ISO/AVC
Идентификатор кодека/Ссылка : http://ffdshow-tryout.sourceforge.net/
Кодек : V_MPEG4/ISO/AVC
Кодек : AVC
Кодек/Семейство : AVC
Кодек/Информация : Advanced Video Codec
Кодек/Ссылка : http://ffdshow-tryout.sourceforge.net/
Профиль кодека : High@L3.1
Настройки кодека : 2 Ref Frames
Параметр CABAC кодека : No
Codec_Settings_RefFrames : 2
Продолжительность : 2731440
Продолжительность : 45 м.
Продолжительность : 45 м. 31 с. 440 мс.
Продолжительность : 45 м.
Продолжительность : 00:45:31.440
Битрейт : 3848376
Битрейт : 3848 Кбит/сек
Ширина : 1280
Ширина : 1280 пикселей
Высота : 718
Высота : 718 пикселей
Пропорции пикселя : 1.000
Соотношение сторон : 1.783
Соотношение сторон : 16:9
Режим частоты кадров : CFR
Режим частоты кадров : Постоянный
Частота кадров : 23.976
Частота кадров : 23,976 кадра/сек
Счётчик кадров : 65489
Разрешение : 8
Разрешение : 8 бит
Колориметрия : 4:2:0
Цветовое пространство : YUV
Субдискретизация насыщенности : 4:2:0
Битовая глубина : 8
Битовая глубина : 8 бит
Тип развёртки : Progressive
Тип развёртки : Прогрессивная
Переплетение : PPF
Переплетение : Прогрессивная
Бит/(Пиксели*Кадры) : 0.175
Задержка : 0
Задержка : 00:00:00.000
Задержка в оригинале : Container
Задержка в оригинале : Контейнер
Размер потока : 1313950864
Размер потока : 1,22 Гбайт (82%)
Размер потока : 1 Гбайт
Размер потока : 1,2 Гбайт
Размер потока : 1,22 Гбайт
Размер потока : 1,224 Гбайт
Размер потока : 1,22 Гбайт (82%)
Пропорции потока : 0.81704
Язык : en
Язык : English
Язык : English
Язык : en
Язык : eng
Язык : en
Default : Yes
Default : Да
Forced : No
Forced : Нет
colour_description_present : Yes
Основные цвета : BT.709
Характеристики трансфера : BT.709
Коэффициенты матрицы : BT.709

Аудио #1
Кол-во : 243
Кол-во потоков такого типа : 2
Тип потока : Audio
Тип потока : Аудио
Идентификатор типа потока : 0
Позиция идентификатора типа потока : 1
StreamOrder : 1
Inform : Russian, 384 Кбит/сек, 48,0 КГц, 16 бит, 6 каналов, AC-3
Идентификатор : 2
Идентификатор : 2
Уникальный идентификатор : 1600691938573784765
Формат : AC-3
Формат/Информация : Audio Coding 3
Коммерческое название : AC-3
Расширение режима : CM (complete main)
Параметр Endianness формата : Big
Идентификатор кодека : A_AC3
Кодек : AC3
Кодек : AC3
Кодек/Семейство : AC3
Кодек/Информация : Dolby AC3
Продолжительность : 2731456
Продолжительность : 45 м.
Продолжительность : 45 м. 31 с. 456 мс.
Продолжительность : 45 м.
Продолжительность : 00:45:31.456
Вид битрейта : CBR
Вид битрейта : Постоянный
Битрейт : 384000
Битрейт : 384 Кбит/сек
Каналы : 6
Каналы : 6 каналов
Расположение каналов : Front: L C R, Side: L R, LFE
Расположение каналов : 3/2/0.1
Частота : 48000
Частота : 48,0 КГц
Количество образцов : 131109888
Разрешение : 16
Разрешение : 16 бит
Битовая глубина : 16
Битовая глубина : 16 бит
Метод сжатия : Lossy
Метод сжатия : С потерями
Задержка : 0
Задержка : 00:00:00.000
Задержка в оригинале : Container
Задержка в оригинале : Контейнер
Задержка видео : 0
Задержка видео : 0
Размер потока : 131109888
Размер потока : 125 Мбайт (8%)
Размер потока : 125 Мбайт
Размер потока : 125 Мбайт
Размер потока : 125 Мбайт
Размер потока : 125,0 Мбайт
Размер потока : 125 Мбайт (8%)
Пропорции потока : 0.08153
Заголовок : DD5.1 AlexFilm
Язык : ru
Язык : Russian
Язык : Russian
Язык : ru
Язык : rus
Язык : ru
Default : Yes
Default : Да
Forced : No
Forced : Нет
bsid : 8
dialnorm : -27
dialnorm/String : -27 dB
compr : -0.28
compr/String : -0.28 dB
acmod : 7
lfeon : 1
dialnorm_Average : -27
dialnorm_Average/String : -27 dB
dialnorm_Minimum : -27
dialnorm_Minimum/String : -27 dB
dialnorm_Maximum : -27
dialnorm_Maximum/String : -27 dB
dialnorm_Count : 2
compr_Average : -0.28
compr_Average/String : -0.28 dB
compr_Minimum : -0.28
compr_Minimum/String : -0.28 dB
compr_Maximum : -0.28
compr_Maximum/String : -0.28 dB
compr_Count : 2

Аудио #2
Кол-во : 243
Кол-во потоков такого типа : 2
Тип потока : Audio
Тип потока : Аудио
Идентификатор типа потока : 1
Позиция идентификатора типа потока : 2
StreamOrder : 2
Inform : English, 384 Кбит/сек, 48,0 КГц, 16 бит, 6 каналов, AC-3
Идентификатор : 3
Идентификатор : 3
Уникальный идентификатор : 15640561807038295954
Формат : AC-3
Формат/Информация : Audio Coding 3
Коммерческое название : AC-3
Расширение режима : CM (complete main)
Параметр Endianness формата : Big
Идентификатор кодека : A_AC3
Кодек : AC3
Кодек : AC3
Кодек/Семейство : AC3
Кодек/Информация : Dolby AC3
Продолжительность : 2731456
Продолжительность : 45 м.
Продолжительность : 45 м. 31 с. 456 мс.
Продолжительность : 45 м.
Продолжительность : 00:45:31.456
Вид битрейта : CBR
Вид битрейта : Постоянный
Битрейт : 384000
Битрейт : 384 Кбит/сек
Каналы : 6
Каналы : 6 каналов
Расположение каналов : Front: L C R, Side: L R, LFE
Расположение каналов : 3/2/0.1
Частота : 48000
Частота : 48,0 КГц
Количество образцов : 131109888
Разрешение : 16
Разрешение : 16 бит
Битовая глубина : 16
Битовая глубина : 16 бит
Метод сжатия : Lossy
Метод сжатия : С потерями
Задержка : 0
Задержка : 00:00:00.000
Задержка в оригинале : Container
Задержка в оригинале : Контейнер
Задержка видео : 0
Задержка видео : 0
Размер потока : 131109888
Размер потока : 125 Мбайт (8%)
Размер потока : 125 Мбайт
Размер потока : 125 Мбайт
Размер потока : 125 Мбайт
Размер потока : 125,0 Мбайт
Размер потока : 125 Мбайт (8%)
Пропорции потока : 0.08153
Заголовок : DD5.1 Original
Язык : en
Язык : English
Язык : English
Язык : en
Язык : eng
Язык : en
Default : No
Default : Нет
Forced : No
Forced : Нет
bsid : 8
dialnorm : -27
dialnorm/String : -27 dB
compr : -0.28
compr/String : -0.28 dB
acmod : 7
lfeon : 1
dialnorm_Average : -27
dialnorm_Average/String : -27 dB
dialnorm_Minimum : -27
dialnorm_Minimum/String : -27 dB
dialnorm_Maximum : -27
dialnorm_Maximum/String : -27 dB
dialnorm_Count : 2
compr_Average : -0.28
compr_Average/String : -0.28 dB
compr_Minimum : -0.28
compr_Minimum/String : -0.28 dB
compr_Maximum : -0.28
compr_Maximum/String : -0.28 dB
compr_Count : 2

скриншот   скриншот   скриншот   скриншот   скриншот   скриншот   скриншот   скриншот   скриншот   скриншот  

pb.wtf



Скачать Рейк через торрент http://cs540103.vk.me/c608827/v608827651/5b92/Jw6BTre63Ng.jpg Скачать фильм Рейк через торрент бесплантно в хорошем качестве Описание:Дин Киган – очень хороший адвокат. Правда, с клиентами ему не очень-то везет. Вот недавно был стеснительный зоофил, потом японский ... 10 10 4
Info! Золотая раздача, скачанное не засчитывается.
Торрент: Зарегистрирован [2014-07-09 11:50] · скачан: 46 раз
Статус: √ проверено
Размер: 19.11 GB
Как cкачать? Как скачать Рейк через торрент | qTorrent



Последний раз редактировалось: GEKADOL (2014-07-09 11:50), всего редактировалось 2 раз(а)


>> Регистрируемся здесь <<






Отзывы и комментарии о схеме читаем и пишем здесь: ---> Отзывы и комментарии о схеме

Новые благодарочки в телеграм довольных пользователей:
скриншот   скриншот   скриншот   скриншот   скриншот

08-04-2014 06:15 Рейк Скачать торрент  

Эм... вообщето у алексов нет всех серий.

Код:

Рейк / Rake (US) / Сезон 1 / Серии 1-5, 7-11 (13)

pb.wtf



08-04-2014 08:20 Рейк Скачать торрент  

Messa-fan писал(а):

Эм... вообщето у алексов нет всех серий.

Код:

Рейк / Rake (US) / Сезон 1 / Серии 1-5, 7-11 (13)


Да вроде все нормально) pb.wtf



09-04-2014 01:30 Рейк Скачать торрент  

Рейк серия 10 Здесь ссылка с сэмплом про озвучкуpb.wtf



05-06-2014 12:32 Рейк Скачать торрент  

Опять на раздаче! Только до качающих! Останьтесь немного может ещё кто качать решит!pb.wtf



    Дорогой пользователь! Огромная просьба, поблагодарите релизера, оцените раздачу и оставьте свои комментарий, если Вы скачали Рейк через торрент бесплатно! Внесите свою лепту в развитие PiratBit!
    Комментировать посты могут только пользователи прошедшие не сложную регистрацию
    Показать сообщения:    

    Рейк через торрент
    Скачать бесплатно Рейк
    Рейк скачать торрент
    Рейк смотреть онлайн
    Cкачать фильм Рейк бесплатно
    Рейк скачать торрент в хорошем качестве
    Рейк смотреть онлайн бесплатно в хорошем качестве


    Вы не можете начинать темы
    Вы не можете отвечать на сообщения
    Вы не можете редактировать свои сообщения
    Вы не можете удалять свои сообщения
    Вы не можете голосовать в опросах
    Вы не можете прикреплять файлы к сообщениям
    Вы можете скачивать файлы