Ссылка на приватное зеркало нашего сайта всего за 1$. Внимание количество ограничено!!!

2 сезон

iTunes

1 сезон

1

iTunes

iTunes

iTunes

1 сезон

RePack

30

ИГРА 18+

pack

ВАЖНО

!!Акция!!

Alien_RageХит недели

RePack

MK11
pack

Забери бонус

RePack

jed

!!Акция!!

Alien_Rage

RePack

fifa19

RePack

Assassins Creed: Odyssey

RePack

NEED FOR SPEED™ PAYBACK

4 сезон

9 сезон

Бесстыжие 9 сезон

Все сериалы

все сериалы на PB.wtf

RePack

FAR CRY 5
  

Нечто / The Thing (Джон Карпентер) [1982 г., ужасы, фантастика, триллер, BDRip 1080p] 6xMVO + 5xAVO + Original Eng pb.wtf

Нечто через торрент pb.wtf

Размер: 15.46 GB | Добавлен: 3 года 5 мес. назад | Торрент скачан:79 раз
Скачать  

08-04-2014 08:58 Нечто Скачать торрент  

Нечто / The ThingГод выпуска: 1982
Страна: США
Жанр: ужасы, фантастика, триллер
Продолжительность: 01:48:42
Перевод: 6 x Профессиональный многоголосый (Киномания / Лизард R5 / FDV / ОРТ / СТС / НТВ+); 5 x Авторский одноголосый (А.Гаврилов / В.Горчаков / А.Михалев / Неизвестный / Д.Пучков [Гоблин])
Субтитры: Русские, Английские

Режиссер: Джон Карпентер
Продюссер: Дэвид Фостер, Лоуренс Турман, Стюарт Коэн
Сценарий: Билл Ланкастер, Джон В. Кэмпбелл мл.

Бюджет: $15 000 000
Премьера в мире: 25 июня 1982







В ролях: Курт Расселл, Дэвид Кленнон, Кейт Дэвид, Ричард Мазур, Т. К. Картер, Уилфорд Бримли, Джоэл Полис, Дональд Моффат, Питер Мэлоуни, Ричард Дайсарт, Чарльз Хэллахан




Описание: Команде ученых американской исследовательской базы в Антарктике предстоит столкнуться с необъяснимым, чудовищным кошмаром. Отрезанные от всего света полярники вступают в неравную схватку с инопланетной тварью, пробудившейся после тысячелетней спячки во льдах, беспощадным существом, которое проснулось и… проголодалось.




Качество: BDRip 1080p
Формат: MKV
Видео кодек: AVC
Аудио кодек: AC3 + DTS
Видео: MPEG-4 AVC, ~13000 kbps, 1920 x 816 (2,35:1), 23,976 кадра/сек
Аудио#1: Русский, AC3 5.1, 384 kbps, 48 kHz (MVO, Киномания)
Аудио#2: Русский, AC3 5.1, 384 kbps, 48 kHz (MVO, Лизард R5)
Аудио#3: Русский, AC3 5.1, 384 kbps, 48 kHz (MVO, FDV)
Аудио#4: Русский, AC3 2.0, 192 kbps, 48 kHz (MVO, ОРТ)
Аудио#5: Русский, AC3 2.0, 192 kbps, 48 kHz (MVO, СТС)
Аудио#6: Русский, AC3 2.0, 192 kbps, 48 kHz (MVO, НТВ+)
Аудио#7: Русский, AC3 5.1, 448 kbps, 48 kHz (AVO, А.Гаврилов)
Аудио#8: Русский, AC3 5.1, 448 kbps, 48 kHz (AVO, В.Горчаков)
Аудио#9: Русский, DTS 5.1, 755 kbps, 48 kHz (AVO, А.Михалев)
Аудио#10: Русский, DTS 5.1, 768 kbps, 48 kHz (AVO, Неизвестный)
Аудио#11: Русский, DTS 5.1, 1509 kbps, 48 kHz (AVO, Д.Пучков (Гоблин)
Аудио#12: Английский, DTS 5.1, 1509 kbps, 48 kHz (Оригинал)
Аудио#13: Английский, AC3 2.0, 192 kbps, 48 kHz (Комментарий)

Общее
Уникальный идентификатор : 215726376681771330447890176479390279247 (0xA24B638CA0B0CB7C83C41617F653264F)
Полное имя : F:\Films\The.Thing.1982.BDRip.1080p.mkv
Формат : Matroska
Версия формата : Version 2
Размер файла : 15,5 Гбайт
Продолжительность : 1 ч. 48 м.
Общий поток : 20,4 Мбит/сек
Дата кодирования : UTC 2014-04-05 07:33:52
Программа кодирования : mkvmerge v5.2.0 ('I can't explain') built on Dec 18 2011 18:12:03
Библиотека кодирования : libebml v1.2.3 + libmatroska v1.3.0

Видео
Идентификатор : 1
Формат : AVC
Формат/Информация : Advanced Video Codec
Профиль формата : High@L4.1
Параметр CABAC формата : Да
Параметр ReFrames формата : 5 кадров
Идентификатор кодека : V_MPEG4/ISO/AVC
Продолжительность : 1 ч. 48 м.
Битрейт : 13,0 Мбит/сек
Ширина : 1920 пикселей
Высота : 816 пикселей
Соотношение сторон : 2,35:1
Режим частоты кадров : Постоянный
Частота кадров : 23,976 кадра/сек
Цветовое пространство : YUV
Субдискретизация насыщенности : 4:2:0
Битовая глубина : 8 бит
Тип развёртки : Прогрессивная
Бит/(Пиксели*Кадры) : 0.346
Размер потока : 9,56 Гбайт (62%)
Библиотека кодирования : x264 core 130 r2273 b3065e6
Настройки программы : cabac=1 / ref=5 / deblock=1:-3:-3 / analyse=0x3:0x113 / me=umh / subme=11 / psy=1 / psy_rd=0.95:0.15 / mixed_ref=1 / me_range=32 / chroma_me=1 / trellis=2 / 8x8dct=1 / cqm=0 / deadzone=21,11 / fast_pskip=0 / chroma_qp_offset=-5 / threads=12 / lookahead_threads=2 / sliced_threads=0 / nr=0 / decimate=0 / interlaced=0 / bluray_compat=0 / constrained_intra=0 / bframes=8 / b_pyramid=2 / b_adapt=2 / b_bias=0 / direct=3 / weightb=1 / open_gop=0 / weightp=2 / keyint=250 / keyint_min=23 / scenecut=40 / intra_refresh=0 / rc_lookahead=95 / rc=2pass / mbtree=1 / bitrate=13000 / ratetol=1.0 / qcomp=0.60 / qpmin=0 / qpmax=69 / qpstep=4 / cplxblur=20.0 / qblur=0.5 / ip_ratio=1.40 / aq=1:0.80
Язык : English
Default : Да
Forced : Нет

Аудио #1
Идентификатор : 2
Формат : AC-3
Формат/Информация : Audio Coding 3
Расширение режима : CM (complete main)
Параметр Endianness формата : Big
Идентификатор кодека : A_AC3
Продолжительность : 1 ч. 48 м.
Вид битрейта : Постоянный
Битрейт : 384 Кбит/сек
Каналы : 6 каналов
Расположение каналов : Front: L C R, Side: L R, LFE
Частота : 48,0 КГц
Битовая глубина : 16 бит
Метод сжатия : С потерями
Размер потока : 299 Мбайт (2%)
Заголовок : MVO - Киномания
Язык : Russian
Default : Да
Forced : Нет

Аудио #2
Идентификатор : 3
Формат : AC-3
Формат/Информация : Audio Coding 3
Расширение режима : CM (complete main)
Параметр Endianness формата : Big
Идентификатор кодека : A_AC3
Продолжительность : 1 ч. 48 м.
Вид битрейта : Постоянный
Битрейт : 384 Кбит/сек
Каналы : 6 каналов
Расположение каналов : Front: L C R, Side: L R, LFE
Частота : 48,0 КГц
Битовая глубина : 16 бит
Метод сжатия : С потерями
Размер потока : 299 Мбайт (2%)
Заголовок : MVO - Лизард R5
Язык : Russian
Default : Нет
Forced : Нет

Аудио #3
Идентификатор : 4
Формат : AC-3
Формат/Информация : Audio Coding 3
Расширение режима : CM (complete main)
Параметр Endianness формата : Big
Идентификатор кодека : A_AC3
Продолжительность : 1 ч. 48 м.
Вид битрейта : Постоянный
Битрейт : 384 Кбит/сек
Каналы : 6 каналов
Расположение каналов : Front: L C R, Side: L R, LFE
Частота : 48,0 КГц
Битовая глубина : 16 бит
Метод сжатия : С потерями
Размер потока : 299 Мбайт (2%)
Заголовок : MVO - FDV
Язык : Russian
Default : Нет
Forced : Нет

Аудио #4
Идентификатор : 5
Формат : AC-3
Формат/Информация : Audio Coding 3
Расширение режима : CM (complete main)
Параметр Endianness формата : Big
Идентификатор кодека : A_AC3
Продолжительность : 1 ч. 48 м.
Вид битрейта : Постоянный
Битрейт : 192 Кбит/сек
Каналы : 2 канала
Расположение каналов : Front: L R
Частота : 48,0 КГц
Битовая глубина : 16 бит
Метод сжатия : С потерями
Размер потока : 149 Мбайт (1%)
Заголовок : MVO - ОРТ
Язык : Russian
Default : Нет
Forced : Нет

Аудио #5
Идентификатор : 6
Формат : AC-3
Формат/Информация : Audio Coding 3
Расширение режима : CM (complete main)
Параметр Endianness формата : Big
Идентификатор кодека : A_AC3
Продолжительность : 1 ч. 48 м.
Вид битрейта : Постоянный
Битрейт : 192 Кбит/сек
Каналы : 2 канала
Расположение каналов : Front: L R
Частота : 48,0 КГц
Битовая глубина : 16 бит
Метод сжатия : С потерями
Размер потока : 149 Мбайт (1%)
Заголовок : MVO - СТС
Язык : Russian
Default : Нет
Forced : Нет

Аудио #6
Идентификатор : 7
Формат : AC-3
Формат/Информация : Audio Coding 3
Расширение режима : CM (complete main)
Параметр Endianness формата : Big
Идентификатор кодека : A_AC3
Продолжительность : 1 ч. 48 м.
Вид битрейта : Постоянный
Битрейт : 192 Кбит/сек
Каналы : 2 канала
Расположение каналов : Front: L R
Частота : 48,0 КГц
Битовая глубина : 16 бит
Метод сжатия : С потерями
Размер потока : 149 Мбайт (1%)
Заголовок : MVO - НТВ+
Язык : Russian
Default : Нет
Forced : Нет

Аудио #7
Идентификатор : 8
Формат : AC-3
Формат/Информация : Audio Coding 3
Расширение режима : CM (complete main)
Параметр Endianness формата : Big
Идентификатор кодека : A_AC3
Продолжительность : 1 ч. 48 м.
Вид битрейта : Постоянный
Битрейт : 448 Кбит/сек
Каналы : 6 каналов
Расположение каналов : Front: L C R, Side: L R, LFE
Частота : 48,0 КГц
Битовая глубина : 16 бит
Метод сжатия : С потерями
Размер потока : 348 Мбайт (2%)
Заголовок : AVO - A.Гаврилов
Язык : Russian
Default : Нет
Forced : Нет

Аудио #8
Идентификатор : 9
Формат : AC-3
Формат/Информация : Audio Coding 3
Расширение режима : CM (complete main)
Параметр Endianness формата : Big
Идентификатор кодека : A_AC3
Продолжительность : 1 ч. 48 м.
Вид битрейта : Постоянный
Битрейт : 448 Кбит/сек
Каналы : 6 каналов
Расположение каналов : Front: L C R, Side: L R, LFE
Частота : 48,0 КГц
Битовая глубина : 16 бит
Метод сжатия : С потерями
Размер потока : 348 Мбайт (2%)
Заголовок : AVO - B.Горчаков
Язык : Russian
Default : Нет
Forced : Нет

Аудио #9
Идентификатор : 10
Формат : DTS
Формат/Информация : Digital Theater Systems
Режим : 16
Параметр Endianness формата : Big
Идентификатор кодека : A_DTS
Продолжительность : 1 ч. 48 м.
Вид битрейта : Постоянный
Битрейт : 755 Кбит/сек
Каналы : 6 каналов
Расположение каналов : Front: L C R, Side: L R, LFE
Частота : 48,0 КГц
Битовая глубина : 24 бит
Метод сжатия : С потерями
Задержка видео : 11 мс.
Размер потока : 587 Мбайт (4%)
Заголовок : AVO - A.Михалев
Язык : Russian
Default : Нет
Forced : Нет

Аудио #10
Идентификатор : 11
Формат : DTS
Формат/Информация : Digital Theater Systems
Режим : 16
Параметр Endianness формата : Big
Идентификатор кодека : A_DTS
Продолжительность : 1 ч. 48 м.
Вид битрейта : Постоянный
Битрейт : 768 Кбит/сек
Каналы : 6 каналов
Расположение каналов : Front: L C R, Side: L R, LFE
Частота : 48,0 КГц
Битовая глубина : 24 бит
Метод сжатия : С потерями
Задержка видео : 11 мс.
Размер потока : 597 Мбайт (4%)
Заголовок : AVO - Hеизвестный
Язык : Russian
Default : Нет
Forced : Нет

Аудио #11
Идентификатор : 12
Формат : DTS
Формат/Информация : Digital Theater Systems
Режим : 16
Параметр Endianness формата : Big
Идентификатор кодека : A_DTS
Продолжительность : 1 ч. 48 м.
Вид битрейта : Постоянный
Битрейт : 1509 Кбит/сек
Каналы : 6 каналов
Расположение каналов : Front: L C R, Side: L R, LFE
Частота : 48,0 КГц
Битовая глубина : 24 бит
Метод сжатия : С потерями
Задержка видео : 11 мс.
Размер потока : 1,15 Гбайт (7%)
Заголовок : AVO - Гоблин
Язык : Russian
Default : Нет
Forced : Нет

Аудио #12
Идентификатор : 13
Формат : DTS
Формат/Информация : Digital Theater Systems
Режим : 16
Параметр Endianness формата : Big
Идентификатор кодека : A_DTS
Продолжительность : 1 ч. 48 м.
Вид битрейта : Постоянный
Битрейт : 1509 Кбит/сек
Каналы : 6 каналов
Расположение каналов : Front: L C R, Side: L R, LFE
Частота : 48,0 КГц
Битовая глубина : 24 бит
Метод сжатия : С потерями
Размер потока : 1,15 Гбайт (7%)
Заголовок : Original
Язык : English
Default : Нет
Forced : Нет

Аудио #13
Идентификатор : 14
Формат : AC-3
Формат/Информация : Audio Coding 3
Профиль формата : Dolby Digital
Расширение режима : CM (complete main)
Параметр Endianness формата : Big
Идентификатор кодека : A_AC3
Продолжительность : 1 ч. 48 м.
Вид битрейта : Постоянный
Битрейт : 192 Кбит/сек
Каналы : 2 канала
Расположение каналов : Front: L R
Частота : 48,0 КГц
Битовая глубина : 16 бит
Метод сжатия : С потерями
Размер потока : 149 Мбайт (1%)
Заголовок : Commentary
Язык : English
Default : Нет
Forced : Нет

Текст #1
Идентификатор : 15
Формат : UTF-8
Идентификатор кодека : S_TEXT/UTF8
Идентификатор кодека/Информация : UTF-8 Plain Text
Заголовок : Forced
Язык : Russian
Default : Да
Forced : Нет

Текст #2
Идентификатор : 16
Формат : UTF-8
Идентификатор кодека : S_TEXT/UTF8
Идентификатор кодека/Информация : UTF-8 Plain Text
Заголовок : Full (R5)
Язык : Russian
Default : Нет
Forced : Нет

Текст #3
Идентификатор : 17
Формат : UTF-8
Идентификатор кодека : S_TEXT/UTF8
Идентификатор кодека/Информация : UTF-8 Plain Text
Заголовок : Full (Киномания)
Язык : Russian
Default : Нет
Forced : Нет

Текст #4
Идентификатор : 18
Формат : UTF-8
Идентификатор кодека : S_TEXT/UTF8
Идентификатор кодека/Информация : UTF-8 Plain Text
Заголовок : Full (Гоблин)
Язык : Russian
Default : Нет
Forced : Нет

Текст #5
Идентификатор : 19
Формат : UTF-8
Идентификатор кодека : S_TEXT/UTF8
Идентификатор кодека/Информация : UTF-8 Plain Text
Язык : English
Default : Нет
Forced : Нет

Меню
00:00:00.000 : en:Main Titles
00:02:07.794 : en:Antarctica, Winter, 1982
00:04:34.899 : en:Station 4
00:07:02.880 : en:Death in the Snow
00:10:24.248 : en:Looking for Answers
00:14:22.987 : en:It Begins...
00:15:49.281 : en:The Norwegian Camp
00:22:14.249 : en:The Man-Thing
00:24:50.447 : en:What Appears to Be Normal
00:27:01.619 : en:The Beast Within
00:30:13.812 : en:The Thing
00:33:03.481 : en:Autopsy on an Alien
00:34:15.720 : en:The Perfect Imitation
00:36:03.411 : en:Something in the Ice
00:37:22.657 : en:The Crater
00:40:05.444 : en:It's Different Than Us
00:41:44.627 : en:The Probability of Infection
00:45:32.312 : en:They're Not Dead Yet
00:46:31.747 : en:The Thing That Was Bennings
00:50:18.223 : en:Blair Goes Berserk
00:54:44.197 : en:Matters of Trust
00:57:36.411 : en:Bad Blood
00:59:08.795 : en:The Man-in-Charge
01:02:47.388 : en:Waiting
01:05:28.382 : en:Where's Fuchs?
01:09:51.979 : en:Macready Cuts Loose
01:14:23.667 : en:The Deadly Defibrillation
01:17:43.700 : en:A Little Test
01:18:44.803 : en:Something in the Blood
01:25:18.571 : en:Finishing the Test
01:26:41.237 : en:Blair's Little Project
01:29:19.187 : en:No Way Out
01:31:14.969 : en:Warming Things Up
01:34:25.701 : en:Right Down Into the Ice
01:37:19.333 : en:The Real Thing
01:39:14.448 : en:One Last Thing
01:42:09.206 : en:End Titles

pb.wtf



Скачать Нечто через торрент http://pic.kartinco.top/images/6/yowl8.jpg Скачать фильм Нечто через торрент бесплантно в хорошем качестве Описание: Команде ученых американской исследовательской базы в Антарктике предстоит столкнуться с необъяснимым, чудовищным кошмаром. ... 9.7 10 31
Info! Золотая раздача, скачанное не засчитывается.
Торрент: Зарегистрирован [2017-05-23 08:06] · скачан: 79 раз
Статус: √ проверено
Размер: 15.46 GB
Как cкачать? Как скачать Нечто через торрент | qTorrent



Последний раз редактировалось: -Lexx- (2017-05-23 08:08), всего редактировалось 2 раз(а)

28-11-2019 20:33  

Отключить всю рекламу на сайте

08-04-2014 09:08 Нечто Скачать торрент  

отличный фильмpb.wtf



08-04-2014 11:17 Нечто Скачать торрент  

классная киношка pb.wtf



09-04-2014 06:18 Нечто Скачать торрент  

Не плохой фильм, да и ремейк можно посмотреть и игра нештяк - сложная только.pb.wtf



23-05-2017 12:22 Нечто Скачать торрент  

Фильм супер! Особенно в правильном переводе Гоблина :)pb.wtf



    Дорогой пользователь! Огромная просьба, поблагодарите релизера, оцените раздачу и оставьте свои комментарий, если Вы скачали Нечто через торрент бесплатно! Внесите свою лепту в развитие PiratBit!
    Комментировать посты могут только пользователи прошедшие не сложную регистрацию
    Показать сообщения:    

    Нечто через торрент
    Скачать бесплатно Нечто
    Нечто скачать торрент
    Нечто смотреть онлайн
    Cкачать фильм Нечто бесплатно
    Нечто скачать торрент в хорошем качестве
    Нечто смотреть онлайн бесплатно в хорошем качестве


    Вы не можете начинать темы
    Вы не можете отвечать на сообщения
    Вы не можете редактировать свои сообщения
    Вы не можете удалять свои сообщения
    Вы не можете голосовать в опросах
    Вы не можете прикреплять файлы к сообщениям
    Вы можете скачивать файлы