Ссылка на приватное зеркало нашего сайта всего за 1$. Внимание количество ограничено!!!

2 сезон

iTunes

1 сезон

1

iTunes

iTunes

iTunes

1 сезон

RePack

30

ИГРА 18+

pack

ВАЖНО

!!Акция!!

Alien_RageХит недели

RePack

MK11
pack

Забери бонус

RePack

jed

!!Акция!!

Alien_Rage

RePack

fifa19

RePack

Assassins Creed: Odyssey

RePack

NEED FOR SPEED™ PAYBACK

4 сезон

9 сезон

Бесстыжие 9 сезон

Все сериалы

все сериалы на PB.wtf

RePack

FAR CRY 5
  

Роль (Константин Лопушанский) [2013, Россия, Беларусь, Финляндия, Германия, драма, DVDRip] pb.wtf

Роль через торрент pb.wtf

Размер: 1.46 GB | Добавлен: 6 лет 6 мес. назад | Торрент скачан:226 раз
Скачать  

08-04-2014 16:49 Роль Скачать торрент  

Роль

  • Год выпуска: 2013
  • Страна:Россия, Беларусь, Финляндия, Германия
  • Жанр:драма
  • Продолжительность:01:54:04
  • Перевод:Не требуется
  • Субтитры: Нет
  • Режиссер: Константин Лопушанский

  • В ролях:

    Максим Суханов (Николай), Мария Ярвенхельми (Амалия), Леонид Мозговой, Анастасия Шевелёва (Ольга), Дмитрий Сутырин, Алёна Сидорова (обворованная тетка), Карина Медведева (поклонница Евлахова), Сергей Юревич (игрок)

    • Описание:
      Черно-белый фильм, события в котором происходят в Петрограде в начале 20-х годов прошлого века. История талантливого актёра, одержимого идеями Серебряного века, и в согласии с идеями символизма он готов прожить чужую жизнь, а точнее, сыграть ее словно роль. Актёр попадает в плен к красным и оказывается как две капли воды похож на красного командира, который собирается его расстрелять. После смерти командира артист решает сыграть роль погибшего, согласно новому театральному веянию - когда часть театральной общественности считала, что театр надо выводить в жизнь, на улицы, что театр должен слиться с жизнью.


    • Качество: DVDRip
    • Формат: AVI
    • Видео кодек: XviD
    • Аудио кодек:AC3
    • Видео: 720x400 (16:9), 25.000 fps, 1 351 Kbps (0.188 bit/pixel)
    • Аудио №1: AC3 / 5.1 / 48 kHz / 448 kbps / 16 bit


    Код:

    General
    Complete name                            : D:\Торенты\Rolj.2013.O.DVDRip.1.46Gb.avi
    Format                                   : AVI
    Format/Info                              : Audio Video Interleave
    File size                                : 1.46 GiB
    Duration                                 : 1h 54mn
    Overall bit rate                         : 1 835 Kbps
    Movie name                               : Inoplanetnoe.vtorzhenie.Bitva.za.Los.Andzheles.2011.DUAL.BDRip.XviD.AC3.-HQ-ViDEO
    Director                                 : Release by Vaippp
    Genre                                    : Action
    Writing application                      : VirtualDubModRus 1.5.10.2 (build 2542/release)
    Original source form/Name                : Movie
    Copyright                                : HQ-ViDEO
    Comment                                  : BDRip

    Video
    ID                                       : 0
    Format                                   : MPEG-4 Visual
    Format profile                           : Advanced Simple@L5
    Format settings, BVOP                    : 1
    Format settings, QPel                    : No
    Format settings, GMC                     : No warppoints
    Format settings, Matrix                  : Custom
    Codec ID                                 : XVID
    Codec ID/Hint                            : XviD
    Duration                                 : 1h 54mn
    Bit rate                                 : 855 Kbps
    Width                                    : 720 pixels
    Height                                   : 304 pixels
    Display aspect ratio                     : 2.35:1
    Frame rate                               : 23.976 fps
    Color space                              : YUV
    Chroma subsampling                       : 4:2:0
    Bit depth                                : 8 bits
    Scan type                                : Progressive
    Compression mode                         : Lossy
    Bits/(Pixel*Frame)                       : 0.163
    Stream size                              : 698 MiB (47%)
    Writing library                          : XviD 1.2.1 (UTC 2008-12-04)

    Audio #1
    ID                                       : 1
    Format                                   : AC-3
    Format/Info                              : Audio Coding 3
    Mode extension                           : CM (complete main)
    Codec ID                                 : 2000
    Duration                                 : 1h 54mn
    Bit rate mode                            : Constant
    Bit rate                                 : 448 Kbps
    Channel(s)                               : 6 channels
    Channel positions                        : Front: L C R, Side: L R, LFE
    Sampling rate                            : 48.0 KHz
    Bit depth                                : 16 bits
    Compression mode                         : Lossy
    Stream size                              : 366 MiB (24%)
    Alignment                                : Split accross interleaves

    Audio #2
    ID                                       : 2
    Format                                   : AC-3
    Format/Info                              : Audio Coding 3
    Mode extension                           : CM (complete main)
    Codec ID                                 : 2000
    Duration                                 : 1h 54mn
    Bit rate mode                            : Constant
    Bit rate                                 : 448 Kbps
    Channel(s)                               : 6 channels
    Channel positions                        : Front: L C R, Side: L R, LFE
    Sampling rate                            : 48.0 KHz
    Bit depth                                : 16 bits
    Compression mode                         : Lossy
    Stream size                              : 366 MiB (24%)
    Alignment                                : Split accross interleaves

    Скриншоты:

    Каталог Новинок (Фильмы-трейлеры, Игры, Сериалы, Мультфильмы)

    © Оформление by Raven
    pb.wtf



  • Скачать Роль через торрент http://pic.kartinco.top/images/6/zzz93.jpg Скачать фильм Роль через торрент бесплантно в хорошем качестве Описание:Черно-белый фильм, события в котором происходят в Петрограде в начале 20-х годов прошлого века. История талантливого актёра, ... 9.7 10 11
    Торрент: Зарегистрирован [2014-04-08 16:49] · скачан: 226 раз
    Статус: √ проверено
    Размер: 1.46 GB
    Как cкачать? Как скачать Роль через торрент | qTorrent

    % Раздел Тема Автор DL S | L
    Фильмы [HD 720p, 1080p] (Хороший звук DUB, MVO) [ 4.59 GB ] Наркоз / Awake [2007 ... BDRip ] Simons cat Скачать
    1 | 1
    Фильмы [HD 720p, 1080p] (Хороший звук DUB, MVO) [ 10.95 GB ] Каратэ-пацан / The Karate Kid [2010 BDRip 1080p] DUB Sub eng + original eng Venxxx Скачать
    1 | 0
    Фильмы [HD 720p, 1080p] (Хороший звук DUB, MVO) [ 7.2 GB ] Рок-н-рольщик / RocknRolla [2008 BDRip 720p] SibFrost Скачать
    1 | 0
    Фильмы до 2000 г. [ 3.36 GB ] День сурка / Groundhog Day [1993 фантастическая DVD5 лицензия] irbis_yu Скачать
    1 | 0
    Фильмы 2010 [ 1.46 GB ] Король говорит / The King's Speech [2010 биография история BDRip] m9sо Скачать
    4 | 0
    Фильмы 2006-2008 [ 1.72 GB ] Наркоз / Awake [2007 BDRip] DUB + original eng + Sub -=Cherry=- Скачать
    1 | 0
    TBS (пошаговые стратегии) [ 7.92 GB ] Король Артур [лицензияРуссккийGFI / Руссобит-М] Shmel Скачать
    1 | 0


    Последний раз редактировалось: Ворон (2014-04-10 14:17), всего редактировалось 1 раз

    28-11-2019 20:33  

    Отключить всю рекламу на сайте

    08-04-2014 17:19 Роль Скачать торрент  

    спасибо!!!!!!!!!!!! pb.wtf



      Дорогой пользователь! Огромная просьба, поблагодарите релизера, оцените раздачу и оставьте свои комментарий, если Вы скачали Роль через торрент бесплатно! Внесите свою лепту в развитие PiratBit!
      Комментировать посты могут только пользователи прошедшие не сложную регистрацию
      Показать сообщения:    

      Роль через торрент
      Скачать бесплатно Роль
      Роль скачать торрент
      Роль смотреть онлайн
      Cкачать фильм Роль бесплатно
      Роль скачать торрент в хорошем качестве
      Роль смотреть онлайн бесплатно в хорошем качестве


      Вы не можете начинать темы
      Вы не можете отвечать на сообщения
      Вы не можете редактировать свои сообщения
      Вы не можете удалять свои сообщения
      Вы не можете голосовать в опросах
      Вы не можете прикреплять файлы к сообщениям
      Вы можете скачивать файлы