2 сезон

iTunes

MVO

1

2 сезон

iTunes

iTunes

1 сезон

RePack

30

Новинка

ВАЖНО

ИГРА 18+

pack

RePack

MK11
pack

Легкие деньги

RePack

jed

RePack

fifa19

RePack

RDR2

RePack

NEED FOR SPEED™ PAYBACK

4 сезон

9 сезон

Бесстыжие 9 сезон

Все сериалы

все сериалы на PB.wtf

RePack

FAR CRY 5

Anonymous, доброе утро, мы не успеваем собрать деньги на оплату серверов за декабрь и январь, помогите нам пожалуйста в это трудное время. В качестве благодарности мы отключим Вам всю рекламу на сайте (укажите свой ник в строку Ваше имя)!

×
  
Magnet ссылка

Лекарство / The Cure (Дэвид Гулд / David Gould) [2014, США, Новая Зеландия, фантастика, боевик, триллер, BDRip-AVC,Профессиональный (многоголосый, закадровый) pb.wtf

Лекарство через торрент pb.wtf

Размер: 1.85 GB | Добавлен: 6 лет 9 мес. назад | Торрент скачан:171 раз
Скачать  

08-04-2014 17:18 Лекарство Скачать торрент  

Лекарство / The Cure

«The cure for cancer must never be released»
  • Год выпуска: 2014
  • Страна:США, Новая Зеландия
  • Жанр:фантастика, боевик, триллер
  • Продолжительность:01:29:29
  • Перевод:Профессиональный (многоголосый, закадровый)
  • Субтитры: Нет
  • Режиссер: Дэвид Гулд / David Gould

  • В ролях:

    Gabriel Abreu (Mexican Man), Джино Асеведо (Carlos), David Allen (Gate Guard), Richard Anderson (Interior Security Guard), Рене Ауэр (Entrance Employee), Джон Бах (Lionel Stanton), Armando Baudin (Diego), Бендж Берриман (Oncologist), Мелисса Билингтон (Radio News Announcer), Натали Болтт (Ruby Wakefield), Jay Bratschi (Exterior Security Guard), Люси Брайант (Irene Garner)

    • Описание:
      Бет и Райан - молодые ученые, которые работают над созданием химиотерапевтических средств. Как известно, подобные лекарства вызывают массу побочных эффектов, но молодые люди, кажется, нашли способ значительно снизить объем негативных последствий. Они представляют свой проект Лайонелу Стентону, главе фармацевтической корпорации, в которой работают. Но того мало интересуют побочные эффекты: главное - прибыль. Под красивыми названиями он продает настоящий яд. Этот человек совершенно беспринципен и готов пойти на все что угодно ради наживы. Вот и сейчас он угрожает собственному ассистенту тюрьмой, требуя, чтобы тот пошел в обход министерства здравоохранения. Это нужно чтобы опередить конкурентов и быстрее выпустить новый продукт. А чтобы выпустить продукт, необходимо поставить эксперименты на людях.

    Мировая премьера:6 февраля 2014

    • Качество: BDRip-AVC
    • Формат: MKV
    • Видео кодек: AVC
    • Аудио кодек:AC3
    • Видео: AVC, 1024x576 (16:9), 1808 kbps, 23,976 fps, 0,128 bpp
    • Аудио №1: русский / AC3 / 2.0 / 48 kHz / 192 kbps / 16 bit ||
      Аудио №2: английский / AC3 / 5.1 / 48 kHz / 448 kbps / 16 bit
      Аудио №3: немецкий / AC3 / 5.1 / 48 kHz / 448 kbps / 16 bit


    Код:

    General
    Unique ID                                : 168348648403719580577546155723716462494 (0x7EA6C532C2870C1E037BA147C20E879E)
    Complete name                            : D:\Торенты\The.Cure.2014.BDRip-AVC.mkv
    Format                                   : Matroska
    Format version                           : Version 2
    File size                                : 1.85 GiB
    Duration                                 : 1h 29mn
    Overall bit rate mode                    : Variable
    Overall bit rate                         : 2 955 Kbps
    Writing application                      : Lavf51.12.1
    Writing library                          : Lavf51.12.1

    Video
    ID                                       : 1
    Format                                   : AVC
    Format/Info                              : Advanced Video Codec
    Format profile                           : Baseline@L3.1
    Format settings, CABAC                   : No
    Format settings, ReFrames                : 1 frame
    Format settings, GOP                     : M=1, N=12
    Codec ID                                 : V_MPEG4/ISO/AVC
    Duration                                 : 1h 29mn
    Bit rate mode                            : Variable
    Bit rate                                 : 1 808 Kbps
    Maximum bit rate                         : 2 790 Kbps
    Width                                    : 1 024 pixels
    Height                                   : 576 pixels
    Display aspect ratio                     : 16:9
    Frame rate                               : 23.976 fps
    Original frame rate                      : 24.000 fps
    Color space                              : YUV
    Chroma subsampling                       : 4:2:0
    Bit depth                                : 8 bits
    Scan type                                : Progressive
    Bits/(Pixel*Frame)                       : 0.128
    Stream size                              : 1.13 GiB (61%)
    Language                                 : English
    Default                                  : Yes
    Forced                                   : No

    Audio #1
    ID                                       : 2
    Format                                   : AC-3
    Format/Info                              : Audio Coding 3
    Mode extension                           : CM (complete main)
    Codec ID                                 : A_AC3
    Duration                                 : 1h 29mn
    Bit rate mode                            : Constant
    Bit rate                                 : 192 Kbps
    Channel(s)                               : 2 channels
    Channel positions                        : Front: L R
    Sampling rate                            : 48.0 KHz
    Bit depth                                : 16 bits
    Compression mode                         : Lossy
    Stream size                              : 123 MiB (6%)
    Language                                 : Russian
    Default                                  : Yes
    Forced                                   : No

    Audio #2
    ID                                       : 3
    Format                                   : AC-3
    Format/Info                              : Audio Coding 3
    Mode extension                           : CM (complete main)
    Codec ID                                 : A_AC3
    Duration                                 : 1h 29mn
    Bit rate mode                            : Constant
    Bit rate                                 : 448 Kbps
    Channel(s)                               : 6 channels
    Channel positions                        : Front: L C R, Side: L R, LFE
    Sampling rate                            : 48.0 KHz
    Bit depth                                : 16 bits
    Compression mode                         : Lossy
    Stream size                              : 287 MiB (15%)
    Language                                 : English
    Default                                  : Yes
    Forced                                   : No

    Audio #3
    ID                                       : 4
    Format                                   : AC-3
    Format/Info                              : Audio Coding 3
    Mode extension                           : CM (complete main)
    Codec ID                                 : A_AC3
    Duration                                 : 1h 29mn
    Bit rate mode                            : Constant
    Bit rate                                 : 448 Kbps
    Channel(s)                               : 6 channels
    Channel positions                        : Front: L C R, Side: L R, LFE
    Sampling rate                            : 48.0 KHz
    Bit depth                                : 16 bits
    Compression mode                         : Lossy
    Stream size                              : 287 MiB (15%)
    Language                                 : German
    Default                                  : Yes
    Forced                                   : No

    Скриншоты:
    Каталог Новинок (Фильмы-трейлеры, Игры, Сериалы, Мультфильмы)

    © Оформление by Raven
    pb.wtf



  • Скачать Лекарство через торрент http://cs540103.vk.me/c608827/v608827651/5b61/2Z1gFtKjUsE.jpg Скачать фильм Лекарство через торрент бесплантно в хорошем качестве Описание:Бет и Райан - молодые ученые, которые работают над созданием химиотерапевтических средств. Как известно, подобные лекарства ... 8.9 10 7
    Торрент: Зарегистрирован [2014-04-08 17:18] · скачан: 171 раз
    Статус: √ проверено
    Размер: 1.85 GB
    Как cкачать? Как скачать Лекарство через торрент | UTorrent

    % Раздел Тема Автор DL S | L
    Фильмы [HD 720p, 1080p] (Хороший звук DUB, MVO) [ 4.84 GB ] Бегущий в лабиринте: Лекарство от смерти / Maze Runner: The Death Cure [2018 BDRip 1080p HEVC ()] Мичман37 Скачать
    1 | 0
    Фильмы 2018 [DVDrip, WEB-DLRip, HDrip] (DUB, MVO) [ 2.18 GB ] Бегущий в лабиринте: Лекарство от смерти / Maze Runner: The Death Cure [2018 BDRip] - [] Twi7ter Скачать
    2 | 1
    Фильмы (Blu-ray, BD-Remux, HDDVD) [ 44.23 GB ] Бегущий в лабиринте: Лекарство от смерти / Maze Runner: The Death Cure [2018 Blu-ray EUR 1080p] DUB [] bober100 Скачать
    1 | 0
    Ultra HD (UHD: 2K, 4K, 8K) — видео сверхвысокой чёткости [ 28.56 GB ] Бегущий в лабиринте: Лекарство от смерти / Maze Runner: The Death Cure [2018 UHD BDRip 2160p] DUB + MVO [HDRezka] sheker187 Скачать
    1 | 0
    Фильмы [HD 720p, 1080p] (Хороший звук DUB, MVO) [ 7.02 GB ] Бегущий в лабиринте: Лекарство от смерти / Maze Runner: The Death Cure [2018 BDRip 720p] MVO [HDRezka Studio] +DUB [] bober100 Скачать
    1 | 0
    Ultra HD (UHD: 2K, 4K, 8K) — видео сверхвысокой чёткости [ 57.8 GB ] Бегущий в лабиринте: Лекарство от смерти / Maze Runner: The Death Cure [2018 UHD BDRemux 2160p] MVO [HDRezka Studio] +DUB [] bober100 Скачать
    1 | 0
    Фильмы 2018 [DVDrip, WEB-DLRip, HDrip] (DUB, MVO) [ 2.9 GB ] Бегущий в лабиринте: Лекарство от смерти / Maze Runner: The Death Cure [2018 BDRip-AVC] DUB [] bober100 Скачать
    1 | 0

    28-11-2019 20:33  

    Отключить всю рекламу на сайте

    09-04-2014 02:13 Лекарство Скачать торрент  

    Сплошные сопли (для девочек +12).pb.wtf



      Дорогой пользователь! Огромная просьба, поблагодарите релизера, оцените раздачу и оставьте свои комментарий, если Вы скачали Лекарство через торрент бесплатно! Внесите свою лепту в развитие PiratBit!
      Комментировать посты могут только пользователи прошедшие не сложную регистрацию
      Показать сообщения:    

      Лекарство через торрент
      Скачать бесплатно Лекарство
      Лекарство скачать торрент
      Лекарство смотреть онлайн
      Cкачать фильм Лекарство бесплатно
      Лекарство скачать торрент в хорошем качестве
      Лекарство смотреть онлайн бесплатно в хорошем качестве


      Вы не можете начинать темы
      Вы не можете отвечать на сообщения
      Вы не можете редактировать свои сообщения
      Вы не можете удалять свои сообщения
      Вы не можете голосовать в опросах
      Вы не можете прикреплять файлы к сообщениям
      Вы можете скачивать файлы