2 сезон

iTunes

MVO

1

2 сезон

iTunes

iTunes

1 сезон

RePack

30

Новинка

ВАЖНО

ИГРА 18+

pack

RePack

MK11
pack

Легкие деньги

RePack

jed

RePack

fifa19

RePack

RDR2

RePack

NEED FOR SPEED™ PAYBACK

4 сезон

9 сезон

Бесстыжие 9 сезон

Все сериалы

все сериалы на PB.wtf

RePack

FAR CRY 5

Anonymous, доброе утро, мы не успеваем собрать деньги на оплату серверов за декабрь и январь, помогите нам пожалуйста в это трудное время. В качестве благодарности мы отключим Вам всю рекламу на сайте (укажите свой ник в строку Ваше имя)!

×
  
Magnet ссылка

Семейный уик-энд / Family Weekend (Бенжамин Еппс / Benjamin Epps) [2013, США, драма, комедия, WEB-DLRip,Дублированный[Лицензия/ iTunes] pb.wtf

Семейный уик-энд через торрент pb.wtf

Размер: 2.05 GB | Добавлен: 6 лет 9 мес. назад | Торрент скачан:337 раз
Скачать  

08-04-2014 20:57 Семейный уик-энд Скачать торрент  

Семейный уик-энд / Family Weekend

«If a family doesn't stick together, sometimes you have to use a little tape»
  • Год выпуска: 2013
  • Страна:США
  • Жанр:драма, комедия
  • Продолжительность:01:45:31
  • Перевод:Дублированный[Лицензия/ iTunes]
  • Субтитры: Нет
  • Режиссер: Бенжамин Еппс / Benjamin Epps

  • В ролях:

    Кристин Ченоуэт (Samantha Smith-Dungy), Мэттью Модайн (Duncan Dungy), Олеся Рулин (Emily Smith-Dungy), Джои Кинг (Lucinda Smith-Dungy), Эдди Хэсселл (Jackson Smith-Dungy), Ширли Джонс (GG), Хлоя Бриджес (Kat), Адам Саундерс (Rick), Робби Такер (Mickey Smith-Dungy), Питер Гэйл (Deputy Tyler), Чейз Мэйсер (Chris), Лиза Лорен Смит (Officer Reyes)

    • Описание:
      Изначально о взаимопонимании и семейной гармонии в этом доме никто даже и не слышал. Еще бы, откуда же ей взяться в логове карьеристки, которая спит и думает только о собственной карьере и успехе, и художника-романтика, который далек от житейских проблем и живет в мире творчества. Несмотря на такое различие в темпераментах и образах жизни эти двое умудрились нажить детей и много лет прожить вместе, почти не замечая друг друга и не занимаясь своими чадами. Пока дети были маленькие и несмышлёные, родителям все сходило с рук. Брошенные и недолюбленные дети в прямом смысле слова были предоставлены сами себе. Теперь старшей дочери уже 16, она не ребенок и понимает, что это не нормальная семья, и все должно быть иначе. Она устала от того, что родители, живя под одной крышей, каждый находятся в своем мире, но при этом их эгоизме страдают только дети, т. е. она и ее сестры-братья. Понимая, что нужны кардинальные меры, она берет младших в союзники и устраивает предкам настоящий уик-энд с испытаниями, который должен образумить их и заставить задуматься о семье.

    Мировая премьера:29 марта 2013

    • Качество: WEB-DLRip
    • Формат: AVI
    • Видео кодек: XviD
    • Аудио кодек:AC3
    • Видео: XviD, 720x304 (2.35:1), 2007 kbps, 23,976 fps, 0,361 bpp
    • Аудио №1: AC3 / 5.1 / 48 kHz / 384 kbps / 16 bit RUS
      Аудио №2: AC3 / 5.1 / 48 kHz / 384 kbps / 16 bit ENG


    Код:

    General
    Complete name                            : D:\Торенты\Semejnyj.yuik.end.2013.D.WEBDLRip.2100Mb_.avi
    Format                                   : AVI
    Format/Info                              : Audio Video Interleave
    File size                                : 2.05 GiB
    Duration                                 : 1h 45mn
    Overall bit rate                         : 2 782 Kbps
    Movie name                               : Family.Weekend.201.WEB-DLRip
    Director                                 : Odessit
    Writing application                      : VirtualDubMod 1.5.10.2 (build 2540/release)
    Writing library                          : VirtualDubMod build 2540/release

    Video
    ID                                       : 0
    Format                                   : MPEG-4 Visual
    Format profile                           : Advanced Simple@L5
    Format settings, BVOP                    : 1
    Format settings, QPel                    : No
    Format settings, GMC                     : No warppoints
    Format settings, Matrix                  : Custom
    Codec ID                                 : XVID
    Codec ID/Hint                            : XviD
    Duration                                 : 1h 45mn
    Bit rate                                 : 2007 Kbps
    Width                                    : 720 pixels
    Height                                   : 304 pixels
    Display aspect ratio                     : 2.35:1
    Frame rate                               : 23.976 fps
    Color space                              : YUV
    Chroma subsampling                       : 4:2:0
    Bit depth                                : 8 bits
    Scan type                                : Progressive
    Compression mode                         : Lossy
    Bits/(Pixel*Frame)                       : 0.361
    Stream size                              : 1.40 GiB (68%)
    Writing library                          : XviD 73

    Audio #1
    ID                                       : 1
    Format                                   : AC-3
    Format/Info                              : Audio Coding 3
    Mode extension                           : CM (complete main)
    Codec ID                                 : 2000
    Duration                                 : 1h 45mn
    Bit rate mode                            : Constant
    Bit rate                                 : 384 Kbps
    Channel(s)                               : 6 channels
    Channel positions                        : Front: L C R, Side: L R, LFE
    Sampling rate                            : 48.0 KHz
    Bit depth                                : 16 bits
    Compression mode                         : Lossy
    Stream size                              : 290 MiB (14%)
    Alignment                                : Split accross interleaves

    Audio #2
    ID                                       : 2
    Format                                   : AC-3
    Format/Info                              : Audio Coding 3
    Mode extension                           : CM (complete main)
    Codec ID                                 : 2000
    Duration                                 : 1h 45mn
    Bit rate mode                            : Constant
    Bit rate                                 : 384 Kbps
    Channel(s)                               : 6 channels
    Channel positions                        : Front: L C R, Side: L R, LFE
    Sampling rate                            : 48.0 KHz
    Bit depth                                : 16 bits
    Compression mode                         : Lossy
    Stream size                              : 290 MiB (14%)
    Alignment                                : Split accross interleaves

    Скриншоты:

    Каталог Новинок (Фильмы-трейлеры, Игры, Сериалы, Мультфильмы)

    © Оформление by Raven
    pb.wtf



  • Скачать Семейный уик-энд через торрент http://cs540103.vk.me/c608827/v608827651/5b53/ZFB_VQ9bqHM.jpg Скачать фильм Семейный уик-энд через торрент бесплантно в хорошем качестве Описание:Изначально о взаимопонимании и семейной гармонии в этом доме никто даже и не слышал. Еще бы, откуда же ей взяться в логове ... 9.8 10 9
    Торрент: Зарегистрирован [2014-04-08 20:57] · скачан: 337 раз
    Статус: √ проверено
    Размер: 2.05 GB
    Как cкачать? Как скачать Семейный уик-энд через торрент | UTorrent

    % Раздел Тема Автор DL S | L
    Фильмы 2013 [DVDrip, WEB-DLRip, HDrip] [ 1.36 GB ] уик-энд / Family Weekend [2013 WEB-DLRip[/ ] Ворон Скачать
    1 | 0
    Фильмы 2013 [DVDrip, WEB-DLRip, HDrip] [ 747 MB ] уик-энд / Family Weekend [2013 WEB-DLRip ] Se7ven95 Скачать
    1 | 0
    Фильмы 2013 (Звук TS, Cam, VO, DVO) [ 2.05 GB ] уик-энд / Family Weekend [ 2013 WEB-DLRip VO ] МАКС1 Скачать
    1 | 0
    Фильмы 2013 (Звук TS, Cam, VO, DVO) [ 743 MB ] уик-энд / Family Weekend [ 2013 WEB-DLRip ] VO - [Gentleman] Ворон Скачать
    1 | 0
    Фильмы 2013 (Звук TS, Cam, VO, DVO) [ 1.36 GB ] уик-энд / Family Weekend [ 2013 WEB-DLRip ] VO - [Gentleman] Ворон Скачать
    1 | 0

    28-11-2019 20:33  

    Отключить всю рекламу на сайте

    09-04-2014 04:43 Семейный уик-энд Скачать торрент  

    pb.wtf



      Дорогой пользователь! Огромная просьба, поблагодарите релизера, оцените раздачу и оставьте свои комментарий, если Вы скачали Семейный уик-энд через торрент бесплатно! Внесите свою лепту в развитие PiratBit!
      Комментировать посты могут только пользователи прошедшие не сложную регистрацию
      Показать сообщения:    

      Семейный уик-энд через торрент
      Скачать бесплатно Семейный уик-энд
      Семейный уик-энд скачать торрент
      Семейный уик-энд смотреть онлайн
      Cкачать фильм Семейный уик-энд бесплатно
      Семейный уик-энд скачать торрент в хорошем качестве
      Семейный уик-энд смотреть онлайн бесплатно в хорошем качестве


      Вы не можете начинать темы
      Вы не можете отвечать на сообщения
      Вы не можете редактировать свои сообщения
      Вы не можете удалять свои сообщения
      Вы не можете голосовать в опросах
      Вы не можете прикреплять файлы к сообщениям
      Вы можете скачивать файлы