2 сезон

iTunes

MVO

1

2 сезон

iTunes

iTunes

1 сезон

RePack

30

Новинка

ВАЖНО

ИГРА 18+

pack

RePack

MK11
pack

Легкие деньги

RePack

jed

RePack

fifa19

RePack

RDR2

RePack

NEED FOR SPEED™ PAYBACK

4 сезон

9 сезон

Бесстыжие 9 сезон

Все сериалы

все сериалы на PB.wtf

RePack

FAR CRY 5

Anonymous, доброе утро, мы не успеваем собрать деньги на оплату серверов за декабрь и январь, помогите нам пожалуйста в это трудное время. В качестве благодарности мы отключим Вам всю рекламу на сайте (укажите свой ник в строку Ваше имя)!

×
  
Magnet ссылка

Паганини: Скрипач Дьявола / The Devil's Violinist (Бернард Роуз / Bernard Rose) [2013, Германия, Италия, мелодрама, драма, музыка, HDRip,Дублированный [Лицензия] pb.wtf

Паганини: Скрипач Дьявола через торрент pb.wtf

Размер: 2.18 GB | Добавлен: 6 лет 9 мес. назад | Торрент скачан:443 раза
Скачать  

08-04-2014 22:47 Паганини: Скрипач Дьявола Скачать торрент  

Паганини: Скрипач Дьявола / The Devil's Violinist

  • Год выпуска: 2013
  • Страна:Германия, Италия
  • Жанр:мелодрама, драма, музыка
  • Продолжительность:02:02:38
  • Перевод:Дублированный [Лицензия]
  • Субтитры: Нет
  • Режиссер: Бернард Роуз / Bernard Rose

  • В ролях:

    Дэвид Гэрретт (Niccolò Paganini), Джаред Харрис (Urbani), Андреа Дэк (Charlotte Watson), Кристиан МакКэй (John Watson), Джоэли Ричардсон (Ethel Langham), Вероника Феррес (Elizabeth Wells), Оливия д’Або (Primrose Blackstone), Хельмут Бергер (Lord Burghersh), Томас Антон (Burly Man), Питер Р. Бишоп (Journalist), Питер Бош (Officer), Бен Кура (Charlotte's Husband)

    • Описание:
      Имя скрипача Никколо Паганини еще при жизни стало легендой. Что не удивительно, ведь его непревзойденный талант покорил сначала Париж, потом всю Европу, а затем и весь мир. Сама личность Паганини, окутанная ореолом мистики и таинственности, неизбежно привела к возникновению самых разнообразных слухов. Среди них была и уверенность в том, что он продал душу дьяволу, чтобы обрести свой талант. Слава и развращает, и мучает музыканта, вино и опиум приносят лишь временное утешение, и все больше ощущается странная всепоглощающая пустота...
      Во время гастролей в Лондоне Паганини встречает девушку с ангельским голосом и чистой душой, которую, казалось, ему было суждено повстречать. Но сможет ли человек, играющий на дьявольской скрипке, познать счастье? Или за дар придется расплачиваться единственной любовью?

    Мировая премьера:31 октября 2013

    • Качество: HDRip
    • Формат: AVI
    • Видео кодек: XviD
    • Аудио кодек:AC3
    • Видео: XviD, 720x304 (2.35:1), 1762 kbps, 24 fps, 0,336 bpp
    • Аудио №1: AC3 / 5.1 / 48 kHz / 384 kbps / 16 bit Russian
      Аудио №2: AC3 / 5.1 / 48 kHz / 384 kbps / 16 bit German


    Код:

    General
    Complete name                            : D:\Торенты\Pagan1n1.Skr1pach.D1avola.2013.D.HDRip.2.18Gb.avi
    Format                                   : AVI
    Format/Info                              : Audio Video Interleave
    Format profile                           : OpenDML
    File size                                : 2.18 GiB
    Duration                                 : 2h 2mn
    Overall bit rate                         : 2 548 Kbps
    Writing application                      : VirtualDubMod 1.5.10.2 (build 2540/release)
    Writing library                          : VirtualDubMod build 2540/release

    Video
    ID                                       : 0
    Format                                   : MPEG-4 Visual
    Format profile                           : Advanced Simple@L5
    Format settings, BVOP                    : 2
    Format settings, QPel                    : No
    Format settings, GMC                     : No warppoints
    Format settings, Matrix                  : Custom
    Codec ID                                 : XVID
    Codec ID/Hint                            : XviD
    Duration                                 : 2h 2mn
    Bit rate                                 : 1 763 Kbps
    Width                                    : 720 pixels
    Height                                   : 304 pixels
    Display aspect ratio                     : 2.35:1
    Frame rate                               : 24.000 fps
    Color space                              : YUV
    Chroma subsampling                       : 4:2:0
    Bit depth                                : 8 bits
    Scan type                                : Progressive
    Compression mode                         : Lossy
    Bits/(Pixel*Frame)                       : 0.336
    Stream size                              : 1.51 GiB (69%)
    Writing library                          : XviD 1.2.1 (UTC 2008-12-04)

    Audio #1
    ID                                       : 1
    Format                                   : AC-3
    Format/Info                              : Audio Coding 3
    Mode extension                           : CM (complete main)
    Codec ID                                 : 2000
    Duration                                 : 2h 2mn
    Bit rate mode                            : Constant
    Bit rate                                 : 384 Kbps
    Channel(s)                               : 6 channels
    Channel positions                        : Front: L C R, Side: L R, LFE
    Sampling rate                            : 48.0 KHz
    Bit depth                                : 16 bits
    Compression mode                         : Lossy
    Stream size                              : 337 MiB (15%)
    Alignment                                : Split accross interleaves
    Interleave, duration                     : 42 ms (1.00 video frame)
    Interleave, preload duration             : 500 ms

    Audio #2
    ID                                       : 2
    Format                                   : AC-3
    Format/Info                              : Audio Coding 3
    Mode extension                           : CM (complete main)
    Codec ID                                 : 2000
    Duration                                 : 2h 2mn
    Bit rate mode                            : Constant
    Bit rate                                 : 384 Kbps
    Channel(s)                               : 6 channels
    Channel positions                        : Front: L C R, Side: L R, LFE
    Sampling rate                            : 48.0 KHz
    Bit depth                                : 16 bits
    Compression mode                         : Lossy
    Stream size                              : 337 MiB (15%)
    Alignment                                : Split accross interleaves
    Interleave, duration                     : 42 ms (1.00 video frame)
    Interleave, preload duration             : 500 ms

    Скриншоты:

    Каталог Новинок (Фильмы-трейлеры, Игры, Сериалы, Мультфильмы)

    © Оформление by Raven
    pb.wtf



  • Скачать Паганини: Скрипач Дьявола через торрент http://cs540103.vk.me/c608827/v608827651/5b4c/G_O9Tkmd1iA.jpg Скачать фильм Паганини: Скрипач Дьявола через торрент бесплантно в хорошем качестве Описание:Имя скрипача Никколо Паганини еще при жизни стало легендой. Что не удивительно, ведь его непревзойденный талант покорил сначала ... 9.9 10 9
    Info! Золотая раздача, скачанное не засчитывается.
    Торрент: Зарегистрирован [2014-04-08 22:47] · скачан: 443 раз
    Статус: √ проверено
    Размер: 2.18 GB
    Как cкачать? Как скачать Паганини: Скрипач Дьявола через торрент | UTorrent

    28-11-2019 20:33  

    Отключить всю рекламу на сайте

      Дорогой пользователь! Огромная просьба, поблагодарите релизера, оцените раздачу и оставьте свои комментарий, если Вы скачали Паганини: Скрипач Дьявола через торрент бесплатно! Внесите свою лепту в развитие PiratBit!
      Комментировать посты могут только пользователи прошедшие не сложную регистрацию
      Показать сообщения:    

      Паганини: Скрипач Дьявола через торрент
      Скачать бесплатно Паганини: Скрипач Дьявола
      Паганини: Скрипач Дьявола скачать торрент
      Паганини: Скрипач Дьявола смотреть онлайн
      Cкачать фильм Паганини: Скрипач Дьявола бесплатно
      Паганини: Скрипач Дьявола скачать торрент в хорошем качестве
      Паганини: Скрипач Дьявола смотреть онлайн бесплатно в хорошем качестве


      Вы не можете начинать темы
      Вы не можете отвечать на сообщения
      Вы не можете редактировать свои сообщения
      Вы не можете удалять свои сообщения
      Вы не можете голосовать в опросах
      Вы не можете прикреплять файлы к сообщениям
      Вы можете скачивать файлы