Архив 81

1 сезон

Добыча

Дубляж

Тед Лассо

3 сезон

Тор

1 сезон

13 клиническая

3 сезон

Жестокая ночь

Дубляж

Одни из нас

1s 9e

Premium

Extended

Deluxe

Deluxe

pack

Рекомендуем

30

Repack

ВАЖНО

ВАЖНО

Ghostwire

Пиратка

jed

RePack

nioh2

RePack

RDR2

RePack

NEED FOR SPEED™ PAYBACK

RePack

скачать торрент

Кинопоиск HD

Острые козырьки 6 сезон

6 сезон

FAR CRY 6

RePack

скачать торрент

Лицензия

скачать торрент

MVO

1

1 сезон

скачать торрент

1 сезон

скачать торрент

Лицензия

  

По признакам совместимости / Jewtopia (Брайан Фогель) [2012 г., мелодрама, комедия, HDRip, Дубляж, Лицензия]

По признакам совместимости через торрент pb.wtf

Размер: 2.05 GB | Добавлен: 8 лет 11 мес. назад | Торрент скачан:94 раза
Смотреть онлайн | Скачать | Поддержите нас   

09-04-2014 17:20 По признакам совместимости Скачать торрент  

По признакам совместимости / Jewtopia
Год выпуска: 2012
Страна: США / Ministry of Content, Oops Doughnuts Productions, Tooley Productions
Жанр: мелодрама, комедия
Продолжительность: 01:28:49
Перевод: Дубляж (Лицензия)

Режиссер: Брайан Фогель

В ролях: Дженнифер Лав Хьюитт, Иван Сергей, Рита Уилсон, Джоэль Мур, Том Арнольд, Джэми-Линн Сиглер, Джон Ловиц, Кристин Лэйкин, Петер Стормаре, Бри Тёрнер

Описание: Крис и Адам — друзья детства, но совсем не похожи друг на друга. Адам — скромный и послушный мальчик из почтенной еврейской семьи, Крис — из семьи военных, привыкший развлекаться на всю катушку втайне от своих суровых родителей. Адам — вот-вот женится на Ханне, которую обожает вся его семья. Крис — безнадежно влюблён в Элисон, которая и слышать о нём не желает. Последовав совету Адама, Крис выдаёт себя за иудея, чтобы добиться свидания с Элисон. Что будет, когда она узнает правду? Традиции рушатся, царит полнейший хаос, и друзья начинают понимать, что жизнь может быть вовсе не такой, какой они привыкли её видеть, а чтобы дотянуться до счастья, нужно приложить немало усилий.

Качество: HDRip
Формат: AVI
Видео кодек: XviD
Аудио кодек: AC3
Видео: 720x384 (1.88:1), 23.976 fps, XviD build 50 ~2919 kbps avg, 0.44 bit/pixel
Аудио: 48 kHz, AC3 Dolby Digital, 3/2 (L,C,R,l,r) + LFE ch, ~384 kbps


Общее
Полное имя : D:\Jewtopia.2012.Piratbit.net.HDRip.avi
Формат : AVI
Формат/Информация : Audio Video Interleave
Профиль формата : OpenDML
Размер файла : 2,05 Гбайт
Продолжительность : 1 ч. 28 м.
Общий поток : 3310 Кбит/сек
Название фильма : Jewtopia.2012.Piratbit.net.HDRip.avi
Режиссёр : Rip by coc900
Программа кодирования : VirtualDubMod 1.5.10.3 | www.virtualdub-fr.org || (build 2550/release)

Видео
Идентификатор : 0
Формат : MPEG-4 Visual
Профиль формата : Advanced [email protected]
Параметр BVOP формата : 2
Параметр QPel формата : Нет
Параметр GMC формата : Без точки перехода
Параметр матрицы формата : Default (H.263)
Идентификатор кодека : XVID
Идентификатор кодека/Подсказка : XviD
Продолжительность : 1 ч. 28 м.
Битрейт : 2914 Кбит/сек
Ширина : 720 пикселей
Высота : 384 пикселя
Соотношение сторон : 1,85:1
Частота кадров : 23,976 кадра/сек
Цветовое пространство : YUV
Субдискретизация насыщенности : 4:2:0
Битовая глубина : 8 бит
Тип развёртки : Прогрессивная
Метод сжатия : С потерями
Бит/(Пиксели*Кадры) : 0.440
Размер потока : 1,81 Гбайт (88%)
Библиотека кодирования : XviD 1.2.1 (UTC 2008-12-04)

Аудио
Идентификатор : 1
Формат : AC-3
Формат/Информация : Audio Coding 3
Расширение режима : CM (complete main)
Параметр Endianness формата : Big
Идентификатор кодека : 2000
Продолжительность : 1 ч. 28 м.
Вид битрейта : Постоянный
Битрейт : 384 Кбит/сек
Каналы : 6 каналов
Расположение каналов : Front: L C R, Side: L R, LFE
Частота : 48,0 КГц
Битовая глубина : 16 бит
Метод сжатия : С потерями
Размер потока : 244 Мбайт (12%)
Выравнивание : Разделение по промежуткам
Продолжительность промежутка : 42 мс. (1,00 видеокадр)
Время предзагрузки промежутка : 500 мс.




Скачать По признакам совместимости через торрент https://pic1.kartinco.top/images/61/6xuy8.jpg Скачать, смотреть онлайн По признакам совместимости бесплантно в хорошем качестве Описание: Крис и Адам — друзья детства, но совсем не похожи друг на друга. Адам — скромный и послушный мальчик из почтенной еврейской ... 5.3 10 3
Торрент: Зарегистрирован [2014-04-09 17:20] · скачан: 94 раз
Статус: √ проверено
Размер: 2.05 GB
Как cкачать? Как скачать По признакам совместимости через торрент | UTorrent

% Раздел Тема Автор DL S | L
Фильмы 2012 [ 1.37 GB ] По признакам совместимости / Jewtopia | Лицензия | Лицензия diletant Скачать
1 | 0
Фильмы 2012 [ 1.37 GB ] По признакам совместимости / Jewtopia | | DLRip Ворон Скачать
1 | 0

28-11-2019 20:33  


Отключить вcю реклaмy на сайте, в т.ч. и в плеере онлайн просмотра!

    Дорогой пользователь! Огромная просьба, поблагодарите релизера, оцените раздачу и оставьте свои комментарий, если Вы скачали По признакам совместимости через торрент бесплатно!!
    Комментировать посты могут только пользователи прошедшие не сложную регистрацию
    Показать сообщения:    


    По признакам совместимости через торрент
    Скачать бесплатно По признакам совместимости
    По признакам совместимости скачать торрент
    По признакам совместимости смотреть онлайн
    Cкачать фильм По признакам совместимости бесплатно
    По признакам совместимости скачать торрент в хорошем качестве
    По признакам совместимости смотреть онлайн бесплатно в хорошем качестве
    Вы не можете начинать темы
    Вы не можете отвечать на сообщения
    Вы не можете редактировать свои сообщения
    Вы не можете удалять свои сообщения
    Вы не можете голосовать в опросах
    Вы не можете прикреплять файлы к сообщениям
    Вы можете скачивать файлы
    По признакам совместимости / Jewtopia [2012 г., мелодрама, комедия, HDRip, Дубляж, Лицензия] смотреть онлайн, скачать торрент picoco.icu