2 сезон

iTunes

MVO

1

2 сезон

iTunes

iTunes

1 сезон

RePack

30

Новинка

ВАЖНО

ИГРА 18+

pack

RePack

MK11
pack

Легкие деньги

RePack

jed

RePack

fifa19

RePack

RDR2

RePack

NEED FOR SPEED™ PAYBACK

4 сезон

9 сезон

Бесстыжие 9 сезон

Все сериалы

все сериалы на PB.wtf

RePack

FAR CRY 5

Anonymous, доброе утро, мы не успеваем собрать деньги на оплату серверов за декабрь и январь, помогите нам пожалуйста в это трудное время. В качестве благодарности мы отключим Вам всю рекламу на сайте (укажите свой ник в строку Ваше имя)!

×
  
Magnet ссылка

9 месяцев строгого режима / 9 mois ferme (Альбер Дюпонтель / Albert Dupontel) [2013, Франция, комедия, HDRip,Дублированный [Лицензия] pb.wtf

9 месяцев строгого режима через торрент pb.wtf

Размер: 1.37 GB | Добавлен: 6 лет 9 мес. назад | Торрент скачан:347 раз
Скачать  

09-04-2014 19:36 9 месяцев строгого режима Скачать торрент  

9 месяцев строгого режима / 9 mois ferme


  • Год выпуска: 2013
  • Страна: Франция
  • Жанр: комедия
  • Продолжительность:01:22:01
  • Перевод: Дублированный [Лицензия]
  • Субтитры: Нет
  • Режиссер: Альбер Дюпонтель / Albert Dupontel
  • В ролях:

    Сандрин Киберлэн (Ariane Felder), Альбер Дюпонтель (Bob Nolan), Николя Марье (Maître Trolos), Филипп Юшан (De Bernard), Филипп Дюкен (Dr. Toulate), Кристиан Эк (Lieutenant Edouard), Жиль Гастон-Дрейфус (M. De Lime), Лорэ Кэлами (Daisy, la collègue), Иоланда Моро (La mère de Bob), Мишель Фо (Le gynécologue), Були Ланнерс (Policier vidéosurveillance), Michèle Bernard-Requin (La Présidente du tribunal)
    • Описание:
      Ариана - судья, трудоголик и блондинка с высокими моральными принципами. Никаких мужчин. Никакой семьи. Никаких детей. Только работа, только закон. Кошмарная новость - и конец идиллии - она беременна! «Этого не может быть!» - кричит Ариана, начиная расследование самого невероятного дела в своей жизни!
      Распутать его отчаянно мешают собственные принципы и знаменитый вор. Но нарушить закон Ариане все же придется. И лучше бы ей не знать, что же на самом деле произошло![/list:u]
      Мировая премьера:25 августа 2013

      • Качество: HDRip
      • Формат: AVI
      • Видео кодек: XviD
      • Аудио кодек:AC3
      • Видео: XviD, 720x304 (2.35:1), 1933 kbps, 23,976 fps, 0,368 bpp
      • Аудио: AC3 / 5.1 / 48 kHz / 448 kbps / 16 bit[/list:u]

        [code:1]
        General
        Complete name : D:\Торенты\9.Mecyacev.Strogogo.Rejima.2013.D.HDRip.1400MB.avi
        Format : AVI
        Format/Info : Audio Video Interleave
        File size : 1.37 GiB
        Duration : 1h 22mn
        Overall bit rate : 2 391 Kbps
        Writing application : VirtualDubMod 1.5.10.2 (build 2540/release)
        Writing library : VirtualDubMod build 2540/release

        Video
        ID : 0
        Format : MPEG-4 Visual
        Format profile : Advanced Simple@L5
        Format settings, BVOP : 2
        Format settings, QPel : No
        Format settings, GMC : No warppoints
        Format settings, Matrix : Custom
        Codec ID : XVID
        Codec ID/Hint : XviD
        Duration : 1h 22mn
        Bit rate : 1 934 Kbps
        Width : 720 pixels
        Height : 304 pixels
        Display aspect ratio : 2.35:1
        Frame rate : 23.976 fps
        Color space : YUV
        Chroma subsampling : 4:2:0
        Bit depth : 8 bits
        Scan type : Progressive
        Compression mode : Lossy
        Bits/(Pixel*Frame) : 0.368
        Stream size : 1.11 GiB (81%)
        Writing library : XviD 1.2.1 (UTC 2008-12-04)

        Audio
        ID : 1
        Format : AC-3
        Format/Info : Audio Coding 3
        Mode extension : CM (complete main)
        Codec ID : 2000
        Duration : 1h 21mn
        Bit rate mode : Constant
        Bit rate : 448 Kbps
        Channel(s) : 6 channels
        Channel positions : Front: L C R, Side: L R, LFE
        Sampling rate : 48.0 KHz
        Bit depth : 16 bits
        Compression mode : Lossy
        Stream size : 263 MiB (19%)
        Alignment : Split accross interleaves
        Interleave, duration : 42 ms (1.00 video frame)
        Interleave, preload duration : 500 ms

        [/code:1]
        Скриншоты:

        Каталог Новинок (Фильмы-трейлеры, Игры, Сериалы, Мультфильмы)
        © Оформление by Raven pb.wtf



  • Скачать 9 месяцев строгого режима через торрент https://pic.kartinco.top/images/6/bwg5v.jpg Скачать фильм 9 месяцев строгого режима через торрент бесплантно в хорошем качестве Описание:Ариана - судья, трудоголик и блондинка с высокими моральными принципами. Никаких мужчин. Никакой семьи. Никаких детей. Только ... 8.3 10 10
    Торрент: Зарегистрирован [2014-04-09 19:36] · скачан: 347 раз
    Статус: √ проверено
    Размер: 1.37 GB
    Как cкачать? Как скачать 9 месяцев строгого режима через торрент | UTorrent

    % Раздел Тема Автор DL S | L
    T Фильмы [HD 720p, 1080p] (Хороший звук DUB, MVO) [ 3.54 GB ] 9 месяцев строгого режима / 9 mois ferme [2013 BDRip 720p by keeper.52] DUB + Original + Sub keeper.52 Скачать
    2 | 0
    Фильмы 2013 [DVDrip, WEB-DLRip, HDrip] [ 1.95 GB ] 9 месяцев строгого режима / 9 mois ferme [2013 BDRip-AVC by keeper.52] DUB + Original + Sub keeper.52 Скачать
    2 | 0
    Фильмы 2013 [DVDrip, WEB-DLRip, HDrip] [ 1.46 GB ] 9 месяцев строгого режима / 9 mois ferme [2013 BDRip-AVC] DUB potroks Скачать
    1 | 0
    Фильмы [HD 720p, 1080p] (Хороший звук DUB, MVO) [ 5.68 GB ] 9 месяцев строгого режима / 9 mois ferme [2013 BDRip 1080p [НТВ Ворон Скачать
    1 | 0
    Фильмы (DVD фильмы) [ 4.17 GB ] 9 месяцев строгого режима / 9 mois ferme [2013 DVD5] R5 voovaz Скачать
    1 | 0
    Фильмы (Blu-ray, BD-Remux, HDDVD) [ 15.18 GB ] 9 месяцев строгого режима / 9 mois ferme [2013 BDRemux 1080p / лицензия Ворон Скачать
    1 | 0
    Фильмы 2013 [DVDrip, WEB-DLRip, HDrip] [ 1.38 GB ] 9 месяцев строгого режима / 9 mois ferme [2013 BDRip [НТВ Ворон Скачать
    1 | 0

    28-11-2019 20:33  

    Отключить всю рекламу на сайте

      Дорогой пользователь! Огромная просьба, поблагодарите релизера, оцените раздачу и оставьте свои комментарий, если Вы скачали 9 месяцев строгого режима через торрент бесплатно! Внесите свою лепту в развитие PiratBit!
      Комментировать посты могут только пользователи прошедшие не сложную регистрацию
      Показать сообщения:    

      9 месяцев строгого режима через торрент
      Скачать бесплатно 9 месяцев строгого режима
      9 месяцев строгого режима скачать торрент
      9 месяцев строгого режима смотреть онлайн
      Cкачать фильм 9 месяцев строгого режима бесплатно
      9 месяцев строгого режима скачать торрент в хорошем качестве
      9 месяцев строгого режима смотреть онлайн бесплатно в хорошем качестве


      Вы не можете начинать темы
      Вы не можете отвечать на сообщения
      Вы не можете редактировать свои сообщения
      Вы не можете удалять свои сообщения
      Вы не можете голосовать в опросах
      Вы не можете прикреплять файлы к сообщениям
      Вы можете скачивать файлы