Ссылка на приватное зеркало нашего сайта всего за 1$. Внимание количество ограничено!!!

2 сезон

iTunes

1 сезон

1

iTunes

iTunes

iTunes

1 сезон

RePack

30

ИГРА 18+

pack

ВАЖНО

!!Акция!!

Alien_RageХит недели

RePack

MK11
pack

Забери бонус

RePack

jed

!!Акция!!

Alien_Rage

RePack

fifa19

RePack

Assassins Creed: Odyssey

RePack

NEED FOR SPEED™ PAYBACK

4 сезон

9 сезон

Бесстыжие 9 сезон

Все сериалы

все сериалы на PB.wtf

RePack

FAR CRY 5
  

Реальная белка / The Nut Job (Питер Лепениотис / Peter Lepeniotis) [2014 г., Мультфильм, комедия, приключения, семейный, BDRip-AVC] MVO [BaibaKo] pb.wtf

Реальная белка через торрент pb.wtf

Размер: 1.76 GB | Добавлен: 6 лет 6 мес. назад | Торрент скачан:833 раза
Скачать  

09-04-2014 05:46 Реальная белка Скачать торрент  

Реальная белка / The Nut Job
Год выпуска: 2014
Страна: Канада, Корея Южная, США / Gulfstream Pictures, Red Rover International, ToonBox Entertainment
Жанр: Мультфильм, комедия, приключения, семейный
Продолжительность: 01:25:54
Перевод: Профессиональный многоголосый [BaibaKo]
Субтитры: Русские, английские (Full + SDH + SDH-Colored)

Режиссер: Питер Лепениотис / Peter Lepeniotis



В ролях: Уилл Арнетт, Брендан Фрейзер, Лиам Нисон, Кэтрин Хейгл, Стивен Лэнг, Майя Рудольф, Джефф Данэм, Гэбриел Иглесиас, Сара Гадон, Джеймс Ранкин

Описание: Пытаясь выжить в городе, неразлучные друзья — белка Злюк и крысёнок Бадди натыкаются на магазин, до краёв набитый их любимым лакомством — орехами. Чувствуя, что «мечты сбываются», приятели планируют величайшее ограбление в истории грызунов. Но тут совсем некстати нарисовались бедные родственники из парка — прямо 13 друзей арахиса! Однако им всем невдомёк, что магазин орехов — лишь прикрытие для банды грабителей, которые намерены вырыть туннель под банк и подменить мешки с деньгами на мешки с теми самыми орехами.

Качество: BDRip-AVC
Формат: MKV
Видео кодек: H.264
Аудио кодек: AC3
Видео: 1056x572 (1,85:1), 23,976 fps, 2032 Кbps, 0.140 bit/pixel
Аудио#1: 48 kHz, AC3 Dolby Digital, 3/2 (L,C,R,l,r) + LFE ch, 448.00 kbps | RUS
Аудио#2: 48 kHz, AC3 Dolby Digital, 3/2 (L,C,R,l,r) + LFE ch, 448.00 kbps | ENG

Релиз группы:
Автор рипа: potroks

Общее
Уникальный идентификатор : 204299477100964241153689202246175075752 (0x99B2A5E7129EDA018DDF7BF4590EADA8)
Полное имя : Real'naia.Belka.2013.DUAL.BDRip.x264.-HELLYWOOD.mkv
Формат : Matroska
Версия формата : Version 4 / Version 2
Размер файла : 1,76 Гбайт
Продолжительность : 1 ч. 25 м.
Общий поток : 2930 Кбит/сек
Название фильма : HELLYWOOD - rip by potroks
Дата кодирования : UTC 2014-04-09 04:26:24
Программа кодирования : mkvmerge v5.9.0 ('On The Loose') built on Dec 15 2012 16:39:58
Библиотека кодирования : libebml v1.3.0 + libmatroska v1.4.0

Видео
Идентификатор : 1
Формат : AVC
Формат/Информация : Advanced Video Codec
Профиль формата : High@L4.1
Параметр CABAC формата : Да
Параметр ReFrames формата : 10 кадров
Идентификатор кодека : V_MPEG4/ISO/AVC
Продолжительность : 1 ч. 25 м.
Битрейт : 2032 Кбит/сек
Ширина : 1056 пикселей
Высота : 572 пикселя
Соотношение сторон : 1,85:1
Режим частоты кадров : Постоянный
Частота кадров : 23,976 кадра/сек
Цветовое пространство : YUV
Субдискретизация насыщенности : 4:2:0
Битовая глубина : 8 бит
Тип развёртки : Прогрессивная
Бит/(Пиксели*Кадры) : 0.140
Размер потока : 1,19 Гбайт (67%)
Заголовок : The Nut Job
Библиотека кодирования : x264 core 130 r2273 b3065e6
Настройки программы : cabac=1 / ref=10 / deblock=1:-1:-1 / analyse=0x3:0x133 / me=umh / subme=11 / psy=1 / psy_rd=1.01:0.00 / mixed_ref=1 / me_range=32 / chroma_me=1 / trellis=2 / 8x8dct=1 / cqm=0 / deadzone=21,11 / fast_pskip=0 / chroma_qp_offset=-2 / threads=9 / lookahead_threads=2 / sliced_threads=0 / nr=0 / decimate=0 / interlaced=0 / bluray_compat=0 / constrained_intra=0 / bframes=11 / b_pyramid=2 / b_adapt=2 / b_bias=0 / direct=3 / weightb=1 / open_gop=0 / weightp=2 / keyint=250 / keyint_min=23 / scenecut=40 / intra_refresh=0 / rc_lookahead=60 / rc=2pass / mbtree=0 / bitrate=2032 / ratetol=1.0 / qcomp=0.70 / qpmin=0 / qpmax=69 / qpstep=4 / cplxblur=20.0 / qblur=0.5 / vbv_maxrate=20000 / vbv_bufsize=20000 / nal_hrd=none / ip_ratio=1.35 / pb_ratio=1.25 / aq=1:0.80
Язык : English
Default : Да
Forced : Нет

Аудио #1
Идентификатор : 2
Формат : AC-3
Формат/Информация : Audio Coding 3
Расширение режима : CM (complete main)
Параметр Endianness формата : Big
Идентификатор кодека : A_AC3
Продолжительность : 1 ч. 25 м.
Вид битрейта : Постоянный
Битрейт : 448 Кбит/сек
Каналы : 6 каналов
Расположение каналов : Front: L C R, Side: L R, LFE
Частота : 48,0 КГц
Битовая глубина : 16 бит
Метод сжатия : С потерями
Размер потока : 275 Мбайт (15%)
Заголовок : MVO | DD 5.1 @ 448 kbps - BaibaKo
Язык : Russian
Default : Да
Forced : Да

Аудио #2
Идентификатор : 3
Формат : AC-3
Формат/Информация : Audio Coding 3
Расширение режима : CM (complete main)
Параметр Endianness формата : Big
Идентификатор кодека : A_AC3
Продолжительность : 1 ч. 25 м.
Вид битрейта : Постоянный
Битрейт : 448 Кбит/сек
Каналы : 6 каналов
Расположение каналов : Front: L C R, Side: L R, LFE
Частота : 48,0 КГц
Битовая глубина : 16 бит
Метод сжатия : С потерями
Размер потока : 275 Мбайт (15%)
Заголовок : Original | DD 5.1 @ 448 kbps
Язык : English
Default : Нет
Forced : Нет

Текст #1
Идентификатор : 4
Формат : UTF-8
Идентификатор кодека : S_TEXT/UTF8
Идентификатор кодека/Информация : UTF-8 Plain Text
Язык : Russian
Default : Нет
Forced : Нет

Текст #2
Идентификатор : 5
Формат : UTF-8
Идентификатор кодека : S_TEXT/UTF8
Идентификатор кодека/Информация : UTF-8 Plain Text
Заголовок : SDH-Colored
Язык : English
Default : Нет
Forced : Нет

Текст #3
Идентификатор : 6
Формат : UTF-8
Идентификатор кодека : S_TEXT/UTF8
Идентификатор кодека/Информация : UTF-8 Plain Text
Заголовок : Full
Язык : English
Default : Нет
Forced : Нет

Текст #4
Идентификатор : 7
Формат : UTF-8
Идентификатор кодека : S_TEXT/UTF8
Идентификатор кодека/Информация : UTF-8 Plain Text
Заголовок : SDH
Язык : English
Default : Нет
Forced : Нет

Меню
00:00:00.000 : :Chapter 01
00:02:35.613 : :Chapter 02
00:05:24.574 : :Chapter 03
00:09:57.430 : :Chapter 04
00:14:58.480 : :Chapter 05
00:17:30.090 : :Chapter 06
00:22:18.837 : :Chapter 07
00:27:58.677 : :Chapter 08
00:32:01.169 : :Chapter 09
00:37:50.434 : :Chapter 10
00:40:19.041 : :Chapter 11
00:44:56.610 : :Chapter 12
00:48:14.266 : :Chapter 13
00:53:17.527 : :Chapter 14
00:58:14.991 : :Chapter 15
01:03:04.071 : :Chapter 16
01:08:48.624 : :Chapter 17
01:13:57.182 : :Chapter 18
01:19:32.058 : :Chapter 19
01:23:11.736 : :Chapter 20
01:25:54.232 : :Chapter 21

pb.wtf



Скачать Реальная белка через торрент http://i60.fastpic.ru/big/2014/0409/61/b2f4a150fc972811d9c0ce6216bbe461.png Скачать фильм Реальная белка через торрент бесплантно в хорошем качестве Описание: Пытаясь выжить в городе, неразлучные друзья — белка Злюк и крысёнок Бадди натыкаются на магазин, до краёв набитый их любимым ... 9.9 10 31
Info! Золотая раздача, скачанное не засчитывается.
Торрент: Зарегистрирован [2014-04-09 05:46] · скачан: 833 раз
Статус: √ проверено
Размер: 1.76 GB
Как cкачать? Как скачать Реальная белка через торрент | qTorrent

% Раздел Тема Автор DL S | L
3D Мультфильмы [ 11.96 GB ] Реальная белка 2 в 3Д / The Nut Job 2: Nutty by Nature 3D [2017 мультфильм BDRip 1080p] OverUnder / Вертикальная стереопара DUB serega768 Скачать
1 | 0
3D Мультфильмы [ 9.03 GB ] Реальная белка 2 3Д / The Nut Job 2: Nutty by Nature 3D [2017 Мультфильм BDRip 1080p] [Half OverUnder / Вертикальная анаморфная стереопара] DUB bober100 Скачать
1 | 0
Иностранные мультфильмы [ 747 MB ] Реальная белка 2 / The Nut Job 2: Nutty by Nature [2017 Мультфильм BDRip] bober100 Скачать
1 | 0
Зарубежные Мультфильмы (BDRip 1080p, 720p, Blu-ray, BD-Remux) [ 6.66 GB ] Реальная белка 2 / The Nut Job 2: Nutty by Nature [2017 Мультфильм BDRip 1080p] bober100 Скачать
1 | 0
Иностранные мультфильмы [ 1.42 GB ] Реальная белка 2 / The Nut Job 2: Nutty by Nature [2017 мультфильм BDRip] - Twi7ter Скачать
3 | 0
Зарубежные Мультфильмы (BDRip 1080p, 720p, Blu-ray, BD-Remux) [ 5.48 GB ] Реальная белка 2 / The Nut Job 2: Nutty by Nature [2017 мультфильм BDRip] [720p] [] killermax2013 Скачать
1 | 0
Фильмы без перевода [ 2.78 GB ] Реальная белка 2 / The Nut Job 2: Nutty by Nature [2017 мультфильм WEB-DL 720p] [ENG] killermax2013 Скачать
1 | 0

28-11-2019 20:33  

Отключить всю рекламу на сайте

    Дорогой пользователь! Огромная просьба, поблагодарите релизера, оцените раздачу и оставьте свои комментарий, если Вы скачали Реальная белка через торрент бесплатно! Внесите свою лепту в развитие PiratBit!
    Комментировать посты могут только пользователи прошедшие не сложную регистрацию
    Показать сообщения:    

    Реальная белка через торрент
    Скачать бесплатно Реальная белка
    Реальная белка скачать торрент
    Реальная белка смотреть онлайн
    Cкачать фильм Реальная белка бесплатно
    Реальная белка скачать торрент в хорошем качестве
    Реальная белка смотреть онлайн бесплатно в хорошем качестве


    Вы не можете начинать темы
    Вы не можете отвечать на сообщения
    Вы не можете редактировать свои сообщения
    Вы не можете удалять свои сообщения
    Вы не можете голосовать в опросах
    Вы не можете прикреплять файлы к сообщениям
    Вы можете скачивать файлы