2 сезон

iTunes

MVO

1

2 сезон

iTunes

iTunes

1 сезон

RePack

30

Ultimate

ВАЖНО

ИГРА 18+

pack

RePack

MK11
pack

Легкие деньги

RePack

jed

RePack

fifa19

RePack

RDR2

RePack

NEED FOR SPEED™ PAYBACK

4 сезон

9 сезон

Бесстыжие 9 сезон

Все сериалы

все сериалы на PB.wtf

RePack

FAR CRY 5

Anonymous, добрый вечер, мы не успеваем собрать деньги на оплату серверов за декабрь и январь, помогите нам пожалуйста в это трудное время. В качестве благодарности мы отключим Вам всю рекламу на сайте (укажите свой ник в строку Ваше имя)!

×
  
Magnet ссылка

47 ронинов / 47 Ronin (Карл Ринш / Carl Rinsch) [2013 г., Фэнтези, боевик, приключения, BDRip-AVC] DUB Лицензия pb.wtf

47 ронинов через торрент pb.wtf

Размер: 2.25 GB | Добавлен: 6 лет 8 мес. назад | Торрент скачан:357 раз
Скачать  

10-04-2014 16:39 47 ронинов Скачать торрент  

47 ронинов / 47 Ronin
Год выпуска: 2013
Страна: США / H2F Entertainment, Mid Atlantic Films, Moving Picture Company
Жанр: Фэнтези, боевик, приключения
Продолжительность: 01:58:43
Перевод: Дубляж [BD CEE]
Субтитры: Русские, английские (Full + SDH + SDH-Colored)
Режиссер: Карл Ринш / Carl Rinsch

В ролях: Киану Ривз, Ринко Кикучи, Кэри-Хироюки Тагава, Хироюки Санада, Таданобу Асано, Того Игава, Йорик ван Вагенинген, Ко Шибасаки, Рик Жене, Харука Абе
Описание: Таинственный странник, преданный всеми, проданный в рабство, избранный судьбой вершить месть, станет одним из 47 воинов, бросивших вызов смерти. Явившись из другого мира, он восстанет против темных сил, чтобы защитить свою запретную любовь.
Качество: BDRip-AVC
Формат: MKV
Видео кодек: H.264
Аудио кодек: AC3
Видео: 1032x430 (2,40:1), 23,976 fps, 1770 Кbps, 0.166 bit/pixel
Аудио#1: 48 kHz, AC3 Dolby Digital, 3/2 (L,C,R,l,r) + LFE ch, 448.00 kbps | RUS
Аудио#2: 48 kHz, AC3 Dolby Digital, 3/2 (L,C,R,l,r) + LFE ch, 448.00 kbps | ENG
Релиз группы:
Автор рипа: potroks

Общее
Уникальный идентификатор : 180716383842991017140898824979237048935 (0x87F4B5A258AD620EB5F935D4D4FC1267)
Полное имя : 47.Roninov.2013.DUAL.BDRip.x264.-HELLYWOOD.mkv
Формат : Matroska
Версия формата : Version 4 / Version 2
Размер файла : 2,20 Гбайт
Продолжительность : 1 ч. 58 м.
Общий поток : 2655 Кбит/сек
Название фильма : HELLYWOOD - rip by potroks
Дата кодирования : UTC 2014-04-10 16:05:41
Программа кодирования : mkvmerge v5.9.0 ('On The Loose') built on Dec 15 2012 16:39:58
Библиотека кодирования : libebml v1.3.0 + libmatroska v1.4.0
Видео
Идентификатор : 1
Формат : AVC
Формат/Информация : Advanced Video Codec
Профиль формата : High@L4.1
Параметр CABAC формата : Да
Параметр ReFrames формата : 10 кадров
Идентификатор кодека : V_MPEG4/ISO/AVC
Продолжительность : 1 ч. 58 м.
Битрейт : 1770 Кбит/сек
Номинальный битрейт : 1912 Кбит/сек
Ширина : 1032 пикселя
Высота : 430 пикселей
Соотношение сторон : 2,40:1
Режим частоты кадров : Постоянный
Частота кадров : 23,976 кадра/сек
Цветовое пространство : YUV
Субдискретизация насыщенности : 4:2:0
Битовая глубина : 8 бит
Тип развёртки : Прогрессивная
Бит/(Пиксели*Кадры) : 0.166
Размер потока : 1,47 Гбайт (67%)
Заголовок : 47 Ronin
Библиотека кодирования : x264 core 130 r2273 b3065e6
Настройки программы : cabac=1 / ref=10 / deblock=1:-2:-2 / analyse=0x3:0x133 / me=umh / subme=11 / psy=1 / psy_rd=0.99:0.05 / mixed_ref=1 / me_range=32 / chroma_me=1 / trellis=2 / 8x8dct=1 / cqm=0 / deadzone=21,11 / fast_pskip=1 / chroma_qp_offset=-3 / threads=9 / lookahead_threads=6 / sliced_threads=0 / nr=0 / decimate=0 / interlaced=0 / bluray_compat=0 / constrained_intra=0 / bframes=11 / b_pyramid=2 / b_adapt=2 / b_bias=0 / direct=3 / weightb=1 / open_gop=0 / weightp=2 / keyint=250 / keyint_min=23 / scenecut=40 / intra_refresh=0 / rc_lookahead=60 / rc=2pass / mbtree=0 / bitrate=1912 / ratetol=1.0 / qcomp=0.70 / qpmin=0 / qpmax=69 / qpstep=4 / cplxblur=20.0 / qblur=0.5 / vbv_maxrate=20000 / vbv_bufsize=20000 / nal_hrd=none / ip_ratio=1.35 / pb_ratio=1.25 / aq=1:0.80
Язык : English
Default : Да
Forced : Нет
Аудио #1
Идентификатор : 2
Формат : AC-3
Формат/Информация : Audio Coding 3
Расширение режима : CM (complete main)
Параметр Endianness формата : Big
Идентификатор кодека : A_AC3
Продолжительность : 1 ч. 58 м.
Вид битрейта : Постоянный
Битрейт : 384 Кбит/сек
Каналы : 6 каналов
Расположение каналов : Front: L C R, Side: L R, LFE
Частота : 48,0 КГц
Битовая глубина : 16 бит
Метод сжатия : С потерями
Размер потока : 326 Мбайт (14%)
Заголовок : Dub | DD 5.1 @ 448 kbps - BD CEE
Язык : Russian
Default : Да
Forced : Да
Аудио #2
Идентификатор : 3
Формат : AC-3
Формат/Информация : Audio Coding 3
Расширение режима : CM (complete main)
Параметр Endianness формата : Big
Идентификатор кодека : A_AC3
Продолжительность : 1 ч. 58 м.
Вид битрейта : Постоянный
Битрейт : 448 Кбит/сек
Каналы : 6 каналов
Расположение каналов : Front: L C R, Side: L R, LFE
Частота : 48,0 КГц
Битовая глубина : 16 бит
Метод сжатия : С потерями
Размер потока : 380 Мбайт (17%)
Заголовок : Original | DD 5.1 @ 448 kbps
Язык : English
Default : Нет
Forced : Нет
Текст #1
Идентификатор : 4
Формат : UTF-8
Идентификатор кодека : S_TEXT/UTF8
Идентификатор кодека/Информация : UTF-8 Plain Text
Язык : Russian
Default : Нет
Forced : Нет
Текст #2
Идентификатор : 5
Формат : UTF-8
Идентификатор кодека : S_TEXT/UTF8
Идентификатор кодека/Информация : UTF-8 Plain Text
Заголовок : SDH
Язык : English
Default : Нет
Forced : Нет
Текст #3
Идентификатор : 6
Формат : UTF-8
Идентификатор кодека : S_TEXT/UTF8
Идентификатор кодека/Информация : UTF-8 Plain Text
Заголовок : SDH-Colored
Язык : English
Default : Нет
Forced : Нет
Меню
00:04:27.558 : en:(01)00:04:27:558
00:11:12.088 : en:(02)00:11:12:088
00:16:27.820 : en:(03)00:16:27:820
00:20:11.835 : en:(04)00:20:11:835
00:26:52.319 : en:(05)00:26:52:319
00:31:02.944 : en:(06)00:31:02:944
00:36:10.626 : en:(07)00:36:10:626
00:43:36.614 : en:(08)00:43:36:614
00:50:14.511 : en:(09)00:50:14:511
00:54:59.421 : en:(10)00:54:59:421
00:59:54.048 : en:(11)00:59:54:048
01:09:57.735 : en:(12)01:09:57:735
01:13:59.017 : en:(13)01:13:59:017
01:19:12.247 : en:(14)01:19:12:247
01:24:17.385 : en:(15)01:24:17:385
01:33:00.825 : en:(16)01:33:00:825
01:38:55.554 : en:(17)01:38:55:554
01:44:41.608 : en:(18)01:44:41:608
01:48:38.303 : en:(19)01:48:38:303
01:58:42.865 : en:(20)01:58:42:865

pb.wtf



Скачать 47 ронинов через торрент http://rsl5.e3chvxrfe.owl.e.s11.ru.wbprx.com/big/2014/0410/9c/f92ebb155efe9c679b33611c4c73799c.png Скачать фильм 47 ронинов через торрент бесплантно в хорошем качестве Описание: Таинственный странник, преданный всеми, проданный в рабство, избранный судьбой вершить месть, станет одним из 47 воинов, ... 9.9 10 29
Info! Золотая раздача, скачанное не засчитывается.
Торрент: Зарегистрирован [2014-04-23 19:02] · скачан: 357 раз
Статус: √ проверено
Размер: 2.25 GB
Как cкачать? Как скачать 47 ронинов через торрент | UTorrent

% Раздел Тема Автор DL S | L
Ultra HD (UHD: 2K, 4K, 8K) — видео сверхвысокой чёткости [ 57.4 GB ] 47 ронинов / 47 Ronin [2013 UHD Blu-Ray EUR 2160p] DUB [] bober100 Скачать
2 | 0
Ultra HD (UHD: 2K, 4K, 8K) — видео сверхвысокой чёткости [ 33.3 GB ] 47 ронинов / 47 Ronin [2013 UHD BDRip 2160p ] DUB [] +AVO [Гаврилов] bober100 Скачать
1 | 0
Ultra HD (UHD: 2K, 4K, 8K) — видео сверхвысокой чёткости [ 25.14 GB ] 47 ронинов / 47 Ronin [2013 UHD BDRip 2160p] DUB [] +AVO [Гаврилов] bober100 Скачать
1 | 0
Ultra HD (UHD: 2K, 4K, 8K) — видео сверхвысокой чёткости [ 52.25 GB ] 47 ронинов / 47 Ronin [2013 UHD BDRemux 2160p] DUB [] +AVO [Гаврилов] bober100 Скачать
2 | 0
Фильмы [HD 720p, 1080p] (Хороший звук DUB, MVO) [ 13.87 GB ] 47 ронинов / 47 Ronin [2013 BDRip 1080p DUB ] от R.G. HD-Films Seedtank Скачать
1 | 0
Фильмы [HD 720p, 1080p] (Хороший звук DUB, MVO) [ 5.89 GB ] 47 ронинов / 47 Ronin [2013 BDRip 720p] DUB potroks Скачать
2 | 0


Последний раз редактировалось: potroks (2014-04-24 16:22), всего редактировалось 2 раз(а)

28-11-2019 20:33  

Отключить всю рекламу на сайте

14-04-2014 06:51 47 ронинов Скачать торрент  

Ждал этот фильм, но после просмотра ощущения только такие pb.wtf



    Дорогой пользователь! Огромная просьба, поблагодарите релизера, оцените раздачу и оставьте свои комментарий, если Вы скачали 47 ронинов через торрент бесплатно! Внесите свою лепту в развитие PiratBit!
    Комментировать посты могут только пользователи прошедшие не сложную регистрацию
    Показать сообщения:    

    47 ронинов через торрент
    Скачать бесплатно 47 ронинов
    47 ронинов скачать торрент
    47 ронинов смотреть онлайн
    Cкачать фильм 47 ронинов бесплатно
    47 ронинов скачать торрент в хорошем качестве
    47 ронинов смотреть онлайн бесплатно в хорошем качестве


    Вы не можете начинать темы
    Вы не можете отвечать на сообщения
    Вы не можете редактировать свои сообщения
    Вы не можете удалять свои сообщения
    Вы не можете голосовать в опросах
    Вы не можете прикреплять файлы к сообщениям
    Вы можете скачивать файлы