Ссылка на приватное зеркало нашего сайта всего за 1$. Внимание количество ограничено!!!

2 сезон

iTunes

1 сезон

1

iTunes

iTunes

iTunes

1 сезон

RePack

30

ИГРА 18+

pack

ВАЖНО

!!Акция!!

Alien_RageХит недели

RePack

MK11
pack

Забери бонус

RePack

jed

!!Акция!!

Alien_Rage

RePack

fifa19

RePack

Assassins Creed: Odyssey

RePack

NEED FOR SPEED™ PAYBACK

4 сезон

9 сезон

Бесстыжие 9 сезон

Все сериалы

все сериалы на PB.wtf

RePack

FAR CRY 5
  

Дорога домой / Серии: 1-12 из 12 (Виталий Бабенко) [2014 г., Детектив, мелодрама, SATRip] pb.wtf

Дорога домой через торрент pb.wtf

Размер: 6.59 GB | Добавлен: 6 лет 6 мес. назад | Торрент скачан:466 раз
Скачать  

10-04-2014 18:26 Дорога домой Скачать торрент  

Дорога домойГод выпуска: 2014
Страна: Россия РТР
Жанр: Детектив, мелодрама
Продолжительность: 12 x ~ 00:47:00
Режиссер: Виталий Бабенко

Премьера в мире: 7 апреля 2014

В ролях: Антон Макарский, Сергей Астахов, Лянка Грыу, Пётр Красилов, Анатолий Руденко, Дмитрий Исаев, Борис Галкин, Екатерина Порубель, Екатерина Волкова, Иван Непомнящий, Владимир Носик, Анастасия Рысева, Евгения Бордзиловская, Вячеслав Гришечкин, Анна Кузина, Полина Филоненко, Андрей Кузичёв, Екатерина Мельник

Описание: Сержант Матвей Герасимов – профессиональный военный, контрактник. Честный, открытый, прямой, он не дает в обиду своих солдат и сам не прогибается перед начальством. Всю свою жизнь он посвятил армии и не представляет себя "на гражданке". Кроме того, за много лет сержант так и не обзавелся семьей. Ветреная холостая жизнь Матвея очень беспокоит его отца - Егора Тимофеевича. Матвей обещает ему в следующий раз обязательно вернуться домой с невестой...

Качество: SATRip
Формат: AVI
Видео кодек: DivX
Аудио кодек: MP3
Видео: DivX 5 720x400, 25.00fps, 1 600 Kbps
Аудио: MPEG Audio Layer 3, 48000Hz, stereo, 128kbps
Релиз от: Kn1GhT





General
Complete name : C:\Documents and Settings\Admin\Мои документы\Downloads\Doroga.domoj\Doroga.domoj.01.avi
Format : AVI
Format/Info : Audio Video Interleave
File size : 538 MiB
Duration : 43mn 12s
Overall bit rate : 1 741 Kbps
Writing application : transcode-1.1.5

Video
ID : 0
Format : MPEG-4 Visual
Format settings, BVOP : Yes
Format settings, QPel : No
Format settings, GMC : No warppoints
Format settings, Matrix : Default (H.263)
Codec ID : DX50
Codec ID/Hint : DivX 5
Duration : 43mn 12s
Bit rate : 1 600 Kbps
Width : 720 pixels
Height : 400 pixels
Display aspect ratio : 16:9
Frame rate : 25.000 fps
Color space : YUV
Chroma subsampling : 4:2:0
Bit depth : 8 bits
Scan type : Progressive
Compression mode : Lossy
Bits/(Pixel*Frame) : 0.222
Stream size : 494 MiB (92%)
Writing library : Intel(R) MPEG-4 encoder based on Intel(R) IPP 6.1 build 137.20[6.1.137.763]

Audio
ID : 1
Format : MPEG Audio
Format version : Version 1
Format profile : Layer 3
Mode : Joint stereo
Mode extension : MS Stereo
Codec ID : 55
Codec ID/Hint : MP3
Duration : 43mn 12s
Bit rate mode : Constant
Bit rate : 128 Kbps
Channel(s) : 2 channels
Sampling rate : 48.0 KHz
Compression mode : Lossy
Stream size : 39.6 MiB (7%)
Alignment : Aligned on interleaves
Interleave, duration : 24 ms (0.60 video frame)
Interleave, preload duration : 48 ms
Writing library : LAME3.98.2

pb.wtf



Скачать Дорога домой через торрент http://pic.kartinco.top/images/6/sdzc9.jpg Скачать фильм Дорога домой через торрент бесплантно в хорошем качестве Описание: Сержант Матвей Герасимов – военный, контрактник. Честный, открытый, прямой, он не дает в обиду своих солдат и ... 9.5 10 14
Торрент: Зарегистрирован [2014-04-10 18:26] · скачан: 466 раз
Статус: √ проверено
Размер: 6.59 GB
Как cкачать? Как скачать Дорога домой через торрент | qTorrent

% Раздел Тема Автор DL S | L
Зарубежные сериалы [ 4.69 GB ] Пациент всегда прав Сезон: 3 Серия 1 - 12 из 18 / Royal Pains «Some doctors still make house calls.» [2011 WEB-DLRip] ДЕН163 Скачать
1 | 0

28-11-2019 20:33  

Отключить всю рекламу на сайте

    Дорогой пользователь! Огромная просьба, поблагодарите релизера, оцените раздачу и оставьте свои комментарий, если Вы скачали Дорога домой через торрент бесплатно! Внесите свою лепту в развитие PiratBit!
    Комментировать посты могут только пользователи прошедшие не сложную регистрацию
    Показать сообщения:    

    Дорога домой через торрент
    Скачать бесплатно Дорога домой
    Дорога домой скачать торрент
    Дорога домой смотреть онлайн
    Cкачать фильм Дорога домой бесплатно
    Дорога домой скачать торрент в хорошем качестве
    Дорога домой смотреть онлайн бесплатно в хорошем качестве


    Вы не можете начинать темы
    Вы не можете отвечать на сообщения
    Вы не можете редактировать свои сообщения
    Вы не можете удалять свои сообщения
    Вы не можете голосовать в опросах
    Вы не можете прикреплять файлы к сообщениям
    Вы можете скачивать файлы