Всегда рабочее зеркало без VPN и Proxy просто перед .vidak.icu напиши любое слово или цифру, Пример http://swox.vidak.icu

MVO

2 сезон

2 сезон

1

1 сезон

iTunes

2 сезон

13

1 сезон

Распродажа

pack

Рекомендуем

Пиратка

30

ВАЖНО

RePack

MK11

RePack

jed

RePack

fifa19

RePack

RDR2

RePack

NEED FOR SPEED™ PAYBACK

Кинопоиск HD

6 сезон

 Острые козырьки 6 сезон

Все сериалы

все сериалы на PB.wtf

RePack

FAR CRY 5

Anonymous, нам критически не хватает 5601 руб. на оплату серверов и переферии за Апрель, помоги нам пожалуйста, вся надежда только на тебя. В благодарность мы отключим тебе всю рекламу на сайте!

×
  
Magnet ссылка

Венера в мехах / La Vénus à la fourrure (Роман Полански / Roman Polanski) [2013, Франция, Польша, драма, HDRip,Авторский (одноголосый) pb.wtf

Венера в мехах через торрент pb.wtf

Размер: 1.46 GB | Добавлен: 8 лет 1 мес. назад | Торрент скачан:161 раз
Смотреть онлайн Венера в мехах | Скачать    Ребята, помогите собрать деньги на оплату серверов!!!

10-04-2014 20:22 Венера в мехах Скачать торрент  

Венера в мехах / La Vénus à la fourrure

  • Год выпуска: 2013
  • Страна:Франция, Польша
  • Жанр:драма
  • Продолжительность:01:35:45
  • Перевод:Авторский (одноголосый)[Алексей Матвеев aka Doctor Joker]
  • Субтитры: Нет
  • Режиссер: Роман Полански / Roman Polanski
  • В ролях:

    Эмманюэль Сенье (Vanda), Матье Амальрик (Thomas)

    • Описание:
      Весь день Тома проводил прослушивания, выбирая актрису для пьесы по знаменитому роману Леопольда фон Захера-Мазоха «Венера в мехах». Режиссер в отчаянии, пока не появляется Ванда - настоящий сгусток энергии, разнузданная и развязная. Она воплощает собой все, что Тома ненавидит: вульгарна, взбалмошна и не остановится ни перед чем, чтобы получить роль. Вдруг все, что так ненавидит Тома, начинает ему нравиться - актриса отлично подготовилась к прослушиванию. Удивление сменяется влечением, а затем и одержимостью этой женщиной.

    Мировая премьера:25 мая 2013

    • Качество: HDRip
    • Формат: AVI
    • Видео кодек: XviD
    • Аудио кодек:AC3
    • Видео: XviD, 720x304 (2.35:1), 1726 kbps, 23,976 fps, 0,329 bpp
    • Аудио: AC3 / 5.1 / 48 kHz / 448 kbps / 16 bit


    Код:

    General
    Complete name                            : D:\Торенты\Venera.v.mehah.2013.L1.HDRip.avi
    Format                                   : AVI
    Format/Info                              : Audio Video Interleave
    File size                                : 1.46 GiB
    Duration                                 : 1h 35mn
    Overall bit rate                         : 2 184 Kbps
    Writing application                      : VirtualDubMod 1.5.10.3 | www.virtualdub-fr.org || (build 2550/release)
    Writing library                          : VirtualDubMod build 2550/release

    Video
    ID                                       : 0
    Format                                   : MPEG-4 Visual
    Format profile                           : Advanced Simple@L5
    Format settings, BVOP                    : 2
    Format settings, QPel                    : No
    Format settings, GMC                     : No warppoints
    Format settings, Matrix                  : Custom
    Codec ID                                 : XVID
    Codec ID/Hint                            : XviD
    Duration                                 : 1h 35mn
    Bit rate                                 : 1 726 Kbps
    Width                                    : 720 pixels
    Height                                   : 304 pixels
    Display aspect ratio                     : 2.35:1
    Frame rate                               : 23.976 fps
    Color space                              : YUV
    Chroma subsampling                       : 4:2:0
    Bit depth                                : 8 bits
    Scan type                                : Progressive
    Compression mode                         : Lossy
    Bits/(Pixel*Frame)                       : 0.329
    Stream size                              : 1.15 GiB (79%)
    Writing library                          : XviD 1.2.1 (UTC 2008-12-04)

    Audio
    ID                                       : 1
    Format                                   : AC-3
    Format/Info                              : Audio Coding 3
    Mode extension                           : CM (complete main)
    Codec ID                                 : 2000
    Duration                                 : 1h 35mn
    Bit rate mode                            : Constant
    Bit rate                                 : 448 Kbps
    Channel(s)                               : 6 channels
    Channel positions                        : Front: L C R, Side: L R, LFE
    Sampling rate                            : 48.0 KHz
    Bit depth                                : 16 bits
    Compression mode                         : Lossy
    Stream size                              : 307 MiB (21%)
    Alignment                                : Split accross interleaves
    Interleave, duration                     : 42 ms (1.00 video frame)
    Interleave, preload duration             : 500 ms

    Скриншоты:

    Каталог Новинок (Фильмы-трейлеры, Игры, Сериалы, Мультфильмы)

    © Оформление by Raven
    pb.wtf



  • Скачать Венера в мехах через торрент https://pic1.kartinco.top/images/61/l2zxc.jpg Скачать, смотреть онлайн Венера в мехах бесплантно в хорошем качестве Описание:Весь день Тома проводил прослушивания, выбирая актрису для пьесы по знаменитому роману Леопольда фон Захера-Мазоха «Венера в ... 9.1 10 7
    Торрент: Зарегистрирован [2014-04-10 20:22] · скачан: 161 раз
    Статус: √ проверено
    Размер: 1.46 GB
    Как cкачать? Как скачать Венера в мехах через торрент | UTorrent

    % Раздел Тема Автор DL S | L
    T Арт-хаус и авторское кино [ 2.15 GB ] Венера в мехах / La Vénus à la fourrure [2013 HDRip Чистый звук] coc900 Скачать
    1 | 0
    T Арт-хаус и авторское кино [ 1.37 GB ] Венера в мехах / La Vénus à la fourrure [2013 HDRip] diletant Скачать
    1 | 0

    28-11-2019 20:33  

    Отключить всю рекламу на сайте

      Дорогой пользователь! Огромная просьба, поблагодарите релизера, оцените раздачу и оставьте свои комментарий, если Вы скачали Венера в мехах через торрент бесплатно!
      Комментировать посты могут только пользователи прошедшие не сложную регистрацию
      Показать сообщения:    

      Венера в мехах через торрент
      Скачать бесплатно Венера в мехах
      Венера в мехах скачать торрент
      Венера в мехах смотреть онлайн
      Cкачать фильм Венера в мехах бесплатно
      Венера в мехах скачать торрент в хорошем качестве
      Венера в мехах смотреть онлайн бесплатно в хорошем качестве


      Вы не можете начинать темы
      Вы не можете отвечать на сообщения
      Вы не можете редактировать свои сообщения
      Вы не можете удалять свои сообщения
      Вы не можете голосовать в опросах
      Вы не можете прикреплять файлы к сообщениям
      Вы можете скачивать файлы