новый адрес
Ссылка на приватное зеркало всего за 1$. Внимание количество ограничено!!!

iTunes

1+1

iTunes

мы

WEB-DL

1

iTunes

Чернобыль

iTunes

Ральф против интернета

Лицензия

ПШазам

Лицензия

Оно 2

Лицензия

30
pack

Вам бонус

ВАЖНО

!!Акция!!

Alien_RageХит недели

RePack

Resident Evil 21

ИГРА 18+

pack

RePack

jed

!!Акция!!

Alien_Rage

RePack

fifa19

RePack

Assassins Creed: Odyssey

RePack

NEED FOR SPEED™ PAYBACK

3 сезон

9 сезон

Бесстыжие 9 сезон

Все сериалы

все сериалы на PB.wtf

RePack

FAR CRY 5
Ребята, катастрофически не хватает 1900р. для оплаты серверов за Октябрь (всвязи с блокировками трафик упал в 3 раза), 1-2р., выручайте.
  

Конгресс / The Congress (Ари Фольман / Ari Folman) [2013, Израиль, Германия, Польша, Люксембург, Франция, Бельгия, фантастика, мультфильм, драма, DVDRip,Профессиональный (многоголосый, закадровый) pb.wtf

Конгресс через торрент pb.wtf

Размер: 1.46 GB | Добавлен: 5 лет 8 мес. назад | Торрент скачан:266 раз
Скачать  

10-04-2014 21:53 Конгресс Скачать торрент  

Конгресс / The Congress

  • Год выпуска: 2013
  • Страна:Израиль, Германия, Польша, Люксембург, Франция, Бельгия
  • Жанр:фантастика, мультфильм, драма
  • Продолжительность:01:57:47
  • Перевод:Профессиональный (многоголосый, закадровый)
  • Субтитры: Нет
  • Режиссер: Ари Фольман / Ari Folman

  • В ролях:

    Робин Райт (Robin Wright), Харви Кейтель (Al), Джон Хэмм (Dylan Truliner, озвучка), Пол Джаматти (Dr. Barker), Коди Смит-МакФи (Aaron Wright), Дэнни Хьюстон (Jeff), Сами Гэйл (Sarah Wright), Майкл Сталь-Дэвид (Steve), Майкл Лэндис (Maxi), Сара Шахи (Michelle), Эд Корбин (Charlie), Кристофер Б. Дункан (Christopher Ryne)

    • Описание:
      Стареющая безработная актриса соглашается на последнюю работу, не представляя себе последствий, которые повлечет за собой это решение...

    Мировая премьера:16 мая 2013

    • Качество: DVDRip
    • Формат: AVI
    • Видео кодек: XviD
    • Аудио кодек:AC3
    • Видео: XviD, 720x384 (1.875), 1637 kbps, 25 fps, 0,237 bpp
    • Аудио: MP3 / 2.0 / 48 kHz / 128 kbps /


    Код:

    General
    Complete name                            : D:\Торенты\Kongress.2013.P.DVDRip.1.46Gb.avi
    Format                                   : AVI
    Format/Info                              : Audio Video Interleave
    File size                                : 1.46 GiB
    Duration                                 : 1h 57mn
    Overall bit rate                         : 1 775 Kbps
    Writing application                      : VirtualDubMod 1.5.10.2 (build 2540/release)
    Writing library                          : VirtualDubMod build 2540/release

    Video
    ID                                       : 0
    Format                                   : MPEG-4 Visual
    Format profile                           : Advanced Simple@L5
    Format settings, BVOP                    : 2
    Format settings, QPel                    : No
    Format settings, GMC                     : No warppoints
    Format settings, Matrix                  : Default (MPEG)
    Codec ID                                 : XVID
    Codec ID/Hint                            : XviD
    Duration                                 : 1h 57mn
    Bit rate                                 : 1 637 Kbps
    Width                                    : 720 pixels
    Height                                   : 384 pixels
    Display aspect ratio                     : 1.875
    Frame rate                               : 25.000 fps
    Color space                              : YUV
    Chroma subsampling                       : 4:2:0
    Bit depth                                : 8 bits
    Scan type                                : Progressive
    Compression mode                         : Lossy
    Bits/(Pixel*Frame)                       : 0.237
    Stream size                              : 1.35 GiB (92%)
    Writing library                          : XviD 1.2.1 (UTC 2008-12-04)

    Audio
    ID                                       : 1
    Format                                   : MPEG Audio
    Format version                           : Version 1
    Format profile                           : Layer 3
    Mode                                     : Joint stereo
    Mode extension                           : MS Stereo
    Codec ID                                 : 55
    Codec ID/Hint                            : MP3
    Duration                                 : 1h 57mn
    Bit rate mode                            : Constant
    Bit rate                                 : 128 Kbps
    Channel(s)                               : 2 channels
    Sampling rate                            : 48.0 KHz
    Compression mode                         : Lossy
    Stream size                              : 108 MiB (7%)
    Alignment                                : Aligned on interleaves
    Interleave, duration                     : 40 ms (1.00 video frame)
    Interleave, preload duration             : 504 ms

    Скриншоты:

    Каталог Новинок (Фильмы-трейлеры, Игры, Сериалы, Мультфильмы)

    © Оформление by Raven
    pb.wtf



  • Скачать Конгресс через торрент http://pic.kartinco.top/images/6/tx4yf.jpg Скачать фильм Конгресс через торрент бесплантно в хорошем качестве Описание:Стареющая безработная актриса соглашается на последнюю работу, не представляя себе последствий, которые повлечет за собой это ... 10 10 12
    Торрент: Зарегистрирован [2014-04-10 21:53] · скачан: 266 раз
    Статус: √ проверено
    Размер: 1.46 GB
    Как cкачать? Как скачать Конгресс через торрент | qTorrent

    % Раздел Тема Автор DL S | L
    Иностранные мультфильмы [ 2.18 GB ] Конгресс / The Congress [2013 мультфильм BDRip-AVC] Dub potroks Скачать
    1 | 0
    Арт-хаус и авторское кино [ 1.46 GB ] Конгресс / The Congress [2013 мультфильм HDRip / Дублированное Ворон Скачать
    1 | 0
    Арт-хаус и авторское кино [ 2.18 GB ] Конгресс / The Congress [2013 мультфильм HDRip многоголосый закадровый] coc900 Скачать
    1 | 0

    28-11-2019 20:33  

    Отключить всю рекламу на сайте

      Дорогой пользователь! Огромная просьба, поблагодарите релизера, оцените раздачу и оставьте свои комментарий, если Вы скачали Конгресс через торрент бесплатно! Внесите свою лепту в развитие PiratBit!
      Комментировать посты могут только пользователи прошедшие не сложную регистрацию
      Показать сообщения:    

      Конгресс через торрент
      Скачать бесплатно Конгресс
      Конгресс скачать торрент
      Конгресс смотреть онлайн
      Cкачать фильм Конгресс бесплатно
      Конгресс скачать торрент в хорошем качестве
      Конгресс смотреть онлайн бесплатно в хорошем качестве


      Вы не можете начинать темы
      Вы не можете отвечать на сообщения
      Вы не можете редактировать свои сообщения
      Вы не можете удалять свои сообщения
      Вы не можете голосовать в опросах
      Вы не можете прикреплять файлы к сообщениям
      Вы можете скачивать файлы