2 сезон

iTunes

1 сезон

1

iTunes

iTunes

iTunes

1 сезон

RePack

30

ИГРА 18+

pack

ВАЖНО

!!Акция!!

Alien_RageХит недели

RePack

MK11
pack

Забери бонус

RePack

jed

!!Акция!!

Alien_Rage

RePack

fifa19

RePack

Assassins Creed: Odyssey

RePack

NEED FOR SPEED™ PAYBACK

4 сезон

9 сезон

Бесстыжие 9 сезон

Все сериалы

все сериалы на PB.wtf

RePack

FAR CRY 5
  

Школа монстров: Страх! Камера! Мотор! / Monster High: Frights, Camera, Action! (Уильям Лау / William Lau) [ 2014 , США , мультфильм , HDRip ] DUB[Лицензия] pb.wtf

Школа монстров: Страх! Камера! Мотор! через торрент pb.wtf

Размер: 1.37 GB | Добавлен: 6 лет 6 мес. назад | Торрент скачан:565 раз
Скачать  

11-04-2014 09:28 Школа монстров: Страх! Камера! Мотор! Скачать торрент  

Школа монстров: Страх! Камера! Мотор! / Monster High: Frights, Camera, Action!
Год выпуска: 2014
Страна: США
Жанр: мультфильм
Продолжительность: 01:13:37
Перевод: Профессиональный (полное дублирование)[Лицензия]
Субтитры: Нет
Режиссер: Уильям Лау / William Lau
Сценарий: Оду Паден / Audu Paden, Дэн Серафин / Dan Serafin
Продюсер: Маргарет М. Дин / Margaret M. Dean, Ира Сингерман / Ira Singerman, Оду Паден / Audu Paden, Лорен Роуз / Lauren Rose, Kyrsti Schwarz
В ролях:
Йени Альварез (Viperine Gorgon), Laura Bailey (Lagoona Blue), Cameron Clarke (Hoodude Voodoo), Cameron Clarke (Ygor), Erin Fitzgerald (Rochelle Goyle), Джони Гуд (Twyla / Clawdia Wolf), Маркус Гриффин (Clawd Wolf), Celeste Henderson (Clawden Wolf), Kate Higgins (Frankie Stein), Джеймс Хоран (Lord Stoker), Julie Maddalena Kliewer (Venus McFlytrap), Mark Mercado (Assistant)
Мировая премьера: 25 марта 2014
Релиз на DVD: 3 апреля 2014 «Двадцатый Век Фокс СНГ»
Описание:
Знакомьтесь – Фрэнки Штейн этот обаятельный актер, способен порадовать абсолютно любого героя, вы не сможете без улыбки наблюдать за его действиями и передвижениями по съемочной площадке. Второй персонаж – это Дракулаура, который очень похож на настоящего Дракулу только с некоторыми перевоплощениями. Клео де Нил – дочка мумии, которой исполнилось почти шесть тысяч лет, но за все это время она не потеряла своей красоты и обаятельности, поэтому девочка готова порадовать своего зрителя в любой момент. Проследить за этими и другими главными героями картины, вы сможете, если начнете смотреть «Школа монстров: Страх! Камера! Мотор!».
Рейтинг
imdb.com: 6.10 (49)
Качество: HDRip
ФорматAVI
Видео кодек: XviD
Аудио кодек: AC3
Видео:1880 Кбит/сек, 720*400 (16:9), в 23,976 кадра/сек, MPEG-4 Visual (XviD)
Аудио:Русский 384 Кбит/сек, 48,0 КГц, 16 бит, 6 каналов, AC-3
Аудио:Английский 384 Кбит/сек, 48,0 КГц, 16 бит, 6 каналов, AC-3

Общее
Кол-во : 279
Кол-во потоков такого типа : 1
Тип потока : General
Тип потока : Общее
Идентификатор типа потока : 0
Inform : AVI: 1,37 Гбайт, 1 ч. 13 м.
Кол-во видеопотоков : 1
Кол-во аудиопотоков : 2
Video_Format_List : MPEG-4 Visual
Video_Format_WithHint_List : MPEG-4 Visual (XviD)
Видеокодеки : XviD
Audio_Format_List : AC-3 / AC-3
Audio_Format_WithHint_List : AC-3 / AC-3
Аудиокодеки : AC3 / AC3
Полное имя : D:\Фильмы\Школа монстров. Страх! Камера! Мотор!.avi
Имя папки : D:\Фильмы
Имя файла : Школа монстров. Страх! Камера! Мотор!
Расширение : avi
Формат : AVI
Формат : AVI
Формат/Информация : Audio Video Interleave
Формат/Используется в : avi
Коммерческое название : AVI
Интернет-тип носителя : video/vnd.avi
Чередующаяся : Yes
Кодек : AVI
Кодек : AVI
Кодек/Информация : Audio Video Interleave
Кодек/Используется в : avi
Размер файла : 1469478912
Размер файла : 1,37 Гбайт
Размер файла : 1 Гбайт
Размер файла : 1,4 Гбайт
Размер файла : 1,37 Гбайт
Размер файла : 1,369 Гбайт
Продолжительность : 4417003
Продолжительность : 1 ч. 13 м.
Продолжительность : 1 ч. 13 м. 37 с. 3 мс.
Продолжительность : 1 ч. 13 м.
Продолжительность : 01:13:37.003
Общий поток : 2661495
Общий поток : 2661 Кбит/сек
Размер потока : 7693916
Размер потока : 7,34 Мбайт (1%)
Размер потока : 7 Мбайт
Размер потока : 7,3 Мбайт
Размер потока : 7,34 Мбайт
Размер потока : 7,337 Мбайт
Размер потока : 7,34 Мбайт (1%)
Пропорции потока : 0.00524
Дата файла : UTC 2014-04-11 09:10:36.339
Дата файла (местная) : 2014-04-11 16:10:36.339
Дата изменения файла : UTC 2014-04-11 09:08:31.944
Дата изменения файла (местная) : 2014-04-11 16:08:31.944
Программа кодирования : VirtualDubMod 1.5.10.2 (build 2540/release)
Библиотека кодирования : VirtualDubMod build 2540/release
Библиотека кодирования : VirtualDubMod build 2540/release

Видео
Кол-во : 248
Кол-во потоков такого типа : 1
Тип потока : Video
Тип потока : Видео
Идентификатор типа потока : 0
Inform : 1880 Кбит/сек, 720*400 (16:9), в 23,976 кадра/сек, MPEG-4 Visual (XviD) (Advanced Simple@L5) (BVOP2)
Идентификатор : 0
Идентификатор : 0
Формат : MPEG-4 Visual
Коммерческое название : MPEG-4 Visual
Профиль формата : Advanced Simple@L5
Настройки формата : BVOP2
Параметр BVOP формата : 2
Параметр BVOP формата : 2
Параметр QPel формата : No
Параметр QPel формата : Нет
Параметр GMC формата : 0
Параметр GMC формата : Без точки перехода
Параметр матрицы формата : Default (MPEG)
Параметр матрицы формата : Default (MPEG)
Интернет-тип носителя : video/MP4V-ES
Идентификатор кодека : XVID
Идентификатор кодека/Подсказка : XviD
Идентификатор кодека/Ссылка : http://mediaarea.net/XVID
Кодек : XVID
Кодек : XviD
Кодек/Семейство : MPEG-4V
Кодек/Информация : XviD project
Кодек/Ссылка : http://www.xvid.org/Downloads.15.0.html
Кодек/CC : XVID
Профиль кодека : Advanced Simple@L5
Настройки кодека : BVOP
Параметр пакетного потока данных кодека : No
Параметр BVOP кодека : Yes
Параметр QPel кодека : No
Параметр GMC кодека : 0
Параметр GMC кодека : Без точки перехода
Параметр матрицы кодека : Default (MPEG)
Продолжительность : 4416996
Продолжительность : 1 ч. 13 м.
Продолжительность : 1 ч. 13 м. 36 с. 996 мс.
Продолжительность : 1 ч. 13 м.
Продолжительность : 01:13:36.996
Битрейт : 1879561
Битрейт : 1880 Кбит/сек
Ширина : 720
Ширина : 720 пикселей
Высота : 400
Высота : 400 пикселей
Пропорции пикселя : 1.000
Соотношение сторон : 1.800
Соотношение сторон : 16:9
Частота кадров : 23.976
Частота кадров : 23,976 кадра/сек
Счётчик кадров : 105902
Разрешение : 8
Разрешение : 8 бит
Колориметрия : 4:2:0
Цветовое пространство : YUV
Субдискретизация насыщенности : 4:2:0
Битовая глубина : 8
Битовая глубина : 8 бит
Тип развёртки : Progressive
Тип развёртки : Прогрессивная
Переплетение : PPF
Переплетение : Прогрессивная
Метод сжатия : Lossy
Метод сжатия : С потерями
Бит/(Пиксели*Кадры) : 0.272
Задержка : 0
Задержка : 00:00:00.000
Размер потока : 1037752710
Размер потока : 990 Мбайт (71%)
Размер потока : 990 Мбайт
Размер потока : 990 Мбайт
Размер потока : 990 Мбайт
Размер потока : 989,7 Мбайт
Размер потока : 990 Мбайт (71%)
Пропорции потока : 0.70620
Библиотека кодирования : XviD0050
Библиотека кодирования : XviD 1.2.1 (UTC 2008-12-04)
Библиотека кодирования/Имя : XviD
Библиотека кодирования/Version : 1.2.1
Библиотека кодирования/Дата : UTC 2008-12-04

Аудио #1
Кол-во : 245
Кол-во потоков такого типа : 2
Тип потока : Audio
Тип потока : Аудио
Идентификатор типа потока : 0
Позиция идентификатора типа потока : 1
Inform : 384 Кбит/сек, 48,0 КГц, 16 бит, 6 каналов, AC-3
Идентификатор : 1
Идентификатор : 1
Формат : AC-3
Формат/Информация : Audio Coding 3
Коммерческое название : AC-3
Расширение режима : CM (complete main)
Параметр Endianness формата : Big
Идентификатор кодека : 2000
Кодек : AC3
Кодек : AC3
Кодек/Семейство : AC3
Кодек/Информация : Dolby AC3
Кодек/CC : 2000
Продолжительность : 4417003
Продолжительность : 1 ч. 13 м.
Продолжительность : 1 ч. 13 м. 37 с. 3 мс.
Продолжительность : 1 ч. 13 м.
Продолжительность : 01:13:37.003
Вид битрейта : CBR
Вид битрейта : Постоянный
Битрейт : 384000
Битрейт : 384 Кбит/сек
Каналы : 6
Каналы : 6 каналов
Расположение каналов : Front: L C R, Side: L R, LFE
Расположение каналов : 3/2/0.1
Частота : 48000
Частота : 48,0 КГц
Количество образцов : 212016144
Разрешение : 16
Разрешение : 16 бит
Битовая глубина : 16
Битовая глубина : 16 бит
Метод сжатия : Lossy
Метод сжатия : С потерями
Задержка : 0
Задержка : 00:00:00.000
Задержка в оригинале : Stream
Задержка в оригинале : 'Сырой' поток
Задержка видео : 0
Задержка видео : 0
Размер потока : 212016143
Размер потока : 202 Мбайт (14%)
Размер потока : 202 Мбайт
Размер потока : 202 Мбайт
Размер потока : 202 Мбайт
Размер потока : 202,2 Мбайт
Размер потока : 202 Мбайт (14%)
Пропорции потока : 0.14428
Выравнивание : Split
Выравнивание : Разделение по промежуткам
Продолжительность промежутка : 1.00
Продолжительность промежутка : 42
Продолжительность промежутка : 42 мс. (1,00 видеокадр)
Время предзагрузки промежутка : 500
Время предзагрузки промежутка : 500 мс.
dialnorm : -27
dialnorm/String : -27 dB
compr : 1.49
compr/String : 1.49 dB
dynrng : 1.02
dynrng/String : 1.02 dB
bsid : 8
dialnorm_Average : -27
dialnorm_Average/String : -27 dB
dialnorm_Minimum : -27
dialnorm_Minimum/String : -27 dB
dialnorm_Maximum : -27
dialnorm_Maximum/String : -27 dB
dialnorm_Count : 405
compr_Average : -0.79
compr_Average/String : -0.79 dB
compr_Minimum : -3.66
compr_Minimum/String : -3.66 dB
compr_Maximum : 3.15
compr_Maximum/String : 3.15 dB
compr_Count : 405
dynrng_Average : -0.84
dynrng_Average/String : -0.84 dB
dynrng_Minimum : -3.45
dynrng_Minimum/String : -3.45 dB
dynrng_Maximum : 2.36
dynrng_Maximum/String : 2.36 dB
dynrng_Count : 405

Аудио #2
Кол-во : 227
Кол-во потоков такого типа : 2
Тип потока : Audio
Тип потока : Аудио
Идентификатор типа потока : 1
Позиция идентификатора типа потока : 2
Inform : 384 Кбит/сек, 48,0 КГц, 16 бит, 6 каналов, AC-3
Идентификатор : 2
Идентификатор : 2
Формат : AC-3
Формат/Информация : Audio Coding 3
Коммерческое название : AC-3
Расширение режима : CM (complete main)
Параметр Endianness формата : Big
Идентификатор кодека : 2000
Кодек : AC3
Кодек : AC3
Кодек/Семейство : AC3
Кодек/Информация : Dolby AC3
Кодек/CC : 2000
Продолжительность : 4417003
Продолжительность : 1 ч. 13 м.
Продолжительность : 1 ч. 13 м. 37 с. 3 мс.
Продолжительность : 1 ч. 13 м.
Продолжительность : 01:13:37.003
Вид битрейта : CBR
Вид битрейта : Постоянный
Битрейт : 384000
Битрейт : 384 Кбит/сек
Каналы : 6
Каналы : 6 каналов
Расположение каналов : Front: L C R, Side: L R, LFE
Расположение каналов : 3/2/0.1
Частота : 48000
Частота : 48,0 КГц
Количество образцов : 212016144
Разрешение : 16
Разрешение : 16 бит
Битовая глубина : 16
Битовая глубина : 16 бит
Метод сжатия : Lossy
Метод сжатия : С потерями
Задержка : 0
Задержка : 00:00:00.000
Задержка в оригинале : Stream
Задержка в оригинале : 'Сырой' поток
Задержка видео : 0
Задержка видео : 0
Размер потока : 212016143
Размер потока : 202 Мбайт (14%)
Размер потока : 202 Мбайт
Размер потока : 202 Мбайт
Размер потока : 202 Мбайт
Размер потока : 202,2 Мбайт
Размер потока : 202 Мбайт (14%)
Пропорции потока : 0.14428
Выравнивание : Split
Выравнивание : Разделение по промежуткам
Продолжительность промежутка : 1.00
Продолжительность промежутка : 42
Продолжительность промежутка : 42 мс. (1,00 видеокадр)
Время предзагрузки промежутка : 500
Время предзагрузки промежутка : 500 мс.
dialnorm : -31
dialnorm/String : -31 dB
bsid : 8
dialnorm_Average : -31
dialnorm_Average/String : -31 dB
dialnorm_Minimum : -31
dialnorm_Minimum/String : -31 dB
dialnorm_Maximum : -31
dialnorm_Maximum/String : -31 dB
dialnorm_Count : 405

скриншот   скриншот   скриншот   скриншот   скриншот   скриншот   скриншот  


pb.wtf



Скачать Школа монстров: Страх! Камера! Мотор! через торрент http://pic.kartinco.top/images/6/w37x1.jpg Скачать фильм Школа монстров: Страх! Камера! Мотор! через торрент бесплантно в хорошем качестве Описание:Знакомьтесь – Фрэнки Штейн этот обаятельный актер, способен порадовать абсолютно любого героя, вы не сможете без улыбки наблюдать ... 8.3 10 24
Info! Золотая раздача, скачанное не засчитывается.
Торрент: Зарегистрирован [2014-04-11 09:28] · скачан: 565 раз
Статус: √ проверено
Размер: 1.37 GB
Как cкачать? Как скачать Школа монстров: Страх! Камера! Мотор! через торрент | qTorrent

% Раздел Тема Автор DL S | L
Иностранные мультфильмы [ 747 MB ] Школа монстров: Страх! Камера! Мотор! / Monster High: Frights Camera Action! [2014 сказка BDRip ] Se7ven95 Скачать
1 | 0

28-11-2019 20:33  

Отключить всю рекламу на сайте

11-04-2014 09:34 Школа монстров: Страх! Камера! Мотор! Скачать торрент  

это ужасно , мои глазаpb.wtf



11-04-2014 09:54 Школа монстров: Страх! Камера! Мотор! Скачать торрент  

Это провал. Бедные дети.pb.wtf



11-04-2014 10:19 Школа монстров: Страх! Камера! Мотор! Скачать торрент  

KALYANO писал(а):

Это провал. Бедные дети.

Вообще то родители за детьми смотреть должны и такие "чудо" мульты им не показыватьpb.wtf



11-04-2014 11:13 Школа монстров: Страх! Камера! Мотор! Скачать торрент  

)))) Раз такое дело скорости подкину)))pb.wtf



11-04-2014 12:32 Школа монстров: Страх! Камера! Мотор! Скачать торрент  

Будьте добры указывать возрастное ограничение, если таковое имеется.pb.wtf



13-04-2014 16:19 Школа монстров: Страх! Камера! Мотор! Скачать торрент  

Полный бред.pb.wtf



07-12-2014 12:25 Школа монстров: Страх! Камера! Мотор! Скачать торрент  

какой монстр хай подсадил детей на эту бредятину!!!! ни сюжета нормального ни прорисовки !!!pb.wtf



    Дорогой пользователь! Огромная просьба, поблагодарите релизера, оцените раздачу и оставьте свои комментарий, если Вы скачали Школа монстров: Страх! Камера! Мотор! через торрент бесплатно! Внесите свою лепту в развитие PiratBit!
    Комментировать посты могут только пользователи прошедшие не сложную регистрацию
    Показать сообщения:    

    Школа монстров: Страх! Камера! Мотор! через торрент
    Скачать бесплатно Школа монстров: Страх! Камера! Мотор!
    Школа монстров: Страх! Камера! Мотор! скачать торрент
    Школа монстров: Страх! Камера! Мотор! смотреть онлайн
    Cкачать фильм Школа монстров: Страх! Камера! Мотор! бесплатно
    Школа монстров: Страх! Камера! Мотор! скачать торрент в хорошем качестве
    Школа монстров: Страх! Камера! Мотор! смотреть онлайн бесплатно в хорошем качестве


    Вы не можете начинать темы
    Вы не можете отвечать на сообщения
    Вы не можете редактировать свои сообщения
    Вы не можете удалять свои сообщения
    Вы не можете голосовать в опросах
    Вы не можете прикреплять файлы к сообщениям
    Вы можете скачивать файлы