Ссылка на приватное зеркало нашего сайта всего за 1$. Внимание количество ограничено!!!

2 сезон

iTunes

1 сезон

1

iTunes

iTunes

iTunes

1 сезон

RePack

30

ИГРА 18+

pack

ВАЖНО

!!Акция!!

Alien_RageХит недели

RePack

MK11
pack

Забери бонус

RePack

jed

!!Акция!!

Alien_Rage

RePack

fifa19

RePack

Assassins Creed: Odyssey

RePack

NEED FOR SPEED™ PAYBACK

4 сезон

9 сезон

Бесстыжие 9 сезон

Все сериалы

все сериалы на PB.wtf

RePack

FAR CRY 5
  

Снегурочка (Дмитрий Светозаров) [2013 г., драма, мелодрама, триллер, DVDRip, (Лицензия)] pb.wtf

Снегурочка через торрент pb.wtf

Размер: 2.2 GB | Добавлен: 6 лет 6 мес. назад | Торрент скачан:286 раз
Скачать  

11-04-2014 17:42 Снегурочка Скачать торрент  

Снегурочка
  • Год выпуска: 2013
  • Страна: Россия
  • Жанр: драма, мелодрама, триллер
  • Продолжительность: 01:44:11
  • Тип релиза:(Лицензия)

  • Режиссер: Дмитрий Светозаров

  • В ролях: Анна Хилькевич,Валерий Дегтярь,Евгений Катаев,Алиса Миронова,Ирина Полянская,Даниил Ануфриев,Сергей Мардарь,Рудольф Фурманов,Лев Елисеев,Вадим Лобанов

  • Описание: В одночасье испарилось и потеряло цену все, к чему стремился и чего достиг за неполные сорок лет жизни Алексей Нечаев, руководитель, лауреат, профессор, член государственных комиссий, фондов, советов при президенте, включая дом и семью. Имя этому наваждению — запретная любовь. Влюбившись в девушку, годящуюся ему в дочери, внешне обаятельную, по-детски дурашливую и наивную, главный герой, сам того не замечая, медленно разрушает свою жизнь…

  • Качество: DVDRip
  • Формат: AVI
  • Видео кодек: XviD
  • Аудио кодек: AC3
  • Видео: 720x400 (1.80:1), 25 fps, XviD build 50 ~2562 kbps avg, 0.36 bit/pixel
  • Аудио: 48 kHz, AC3 Dolby Digital, 3/2 (L,C,R,l,r) + LFE ch, ~448 kbps

    Общее
    Полное имя : H:\кино\Snegurochka.2013.DVDRip.avi
    Формат : AVI
    Формат/Информация : Audio Video Interleave
    Профиль формата : OpenDML
    Размер файла : 2,20 Гбайт
    Продолжительность : 1 ч. 44 м.
    Общий поток : 3018 Кбит/сек
    Название фильма : Snegurochka.2014.DVDRip.avi
    Режиссёр : Rip by coc900
    Программа кодирования : VirtualDubMod 1.5.10.3 | www.virtualdub-fr.org || (build 2550/release)

    Видео
    Идентификатор : 0
    Формат : MPEG-4 Visual
    Профиль формата : Advanced Simple@L5
    Параметр BVOP формата : 2
    Параметр QPel формата : Нет
    Параметр GMC формата : Без точки перехода
    Параметр матрицы формата : Default (H.263)
    Идентификатор кодека : XVID
    Идентификатор кодека/Подсказка : XviD
    Продолжительность : 1 ч. 44 м.
    Битрейт : 2557 Кбит/сек
    Ширина : 720 пикселей
    Высота : 400 пикселей
    Соотношение сторон : 16:9
    Частота кадров : 25,000 кадров/сек
    Цветовое пространство : YUV
    Субдискретизация насыщенности : 4:2:0
    Битовая глубина : 8 бит
    Тип развёртки : Прогрессивная
    Метод сжатия : С потерями
    Бит/(Пиксели*Кадры) : 0.355
    Размер потока : 1,86 Гбайт (85%)
    Библиотека кодирования : XviD 1.2.1 (UTC 2008-12-04)

    Аудио
    Идентификатор : 1
    Формат : AC-3
    Формат/Информация : Audio Coding 3
    Расширение режима : CM (complete main)
    Параметр Endianness формата : Big
    Идентификатор кодека : 2000
    Продолжительность : 1 ч. 44 м.
    Вид битрейта : Постоянный
    Битрейт : 448 Кбит/сек
    Каналы : 6 каналов
    Расположение каналов : Front: L C R, Side: L R, LFE
    Частота : 48,0 КГц
    Битовая глубина : 16 бит
    Метод сжатия : С потерями
    Размер потока : 334 Мбайт (15%)
    Выравнивание : Разделение по промежуткам
    Продолжительность промежутка : 40 мс. (1,00 видеокадр)
    Время предзагрузки промежутка : 500 мс.

    pb.wtf



  • Скачать Снегурочка через торрент http://pic.kartinco.top/images/6/j1l1i.jpg Скачать фильм Снегурочка через торрент бесплантно в хорошем качестве Описание: В одночасье испарилось и потеряло цену все, к чему стремился и чего достиг за неполные сорок лет жизни Алексей Нечаев, ... 9 10 9
    Торрент: Зарегистрирован [2014-04-11 17:42] · скачан: 286 раз
    Статус: √ проверено
    Размер: 2.2 GB
    Как cкачать? Как скачать Снегурочка через торрент | qTorrent

    % Раздел Тема Автор DL S | L
    Наши сериалы [ 2.15 GB ] Мама для Снегурочки / Серии 1-4 из 4 [2017 Мело WEB-DLRip] bober100 Скачать
    2 | 0
    Отечественная Поп музыка (сборники) (mp3) [ 675 MB ] VA - Зимние муз новинки от снегурочки 2016 / MP3 / 256 kbps / Pop bober100 Скачать
    1 | 0
    Eurodance, Technopop, Disco (сборники) (mp3) [ 689 MB ] VA - Зажигательная дискотека Снегурочки и Деда Мороза 2016 / MP3 / 256 kbps / dance pop den7z8 Скачать
    1 | 0
    Eurodance, Technopop, Disco (сборники) (mp3) [ 682 MB ] VA - Зимние Муз новинки от снегурочки 2015 / MP3 / 256 kbps / Pop den7z8 Скачать
    1 | 0
    Наши мультфильмы [ 745 MB ] Снегурочка [ 1952 СССР мультфильм мюзикл DVDRip-AVC от AVP Studio] AVP Studio Скачать
    1 | 0
    Наши мультфильмы [ 744 MB ] Снегурочка [ 1952 СССР мультфильм мюзикл DVDRip от AVP Studio] AVP Studio Скачать
    1 | 0
    Наши фильмы (DVD фильмы) [ 5.41 GB ] Снегурочка [2014 DVD9] R5 voovaz Скачать
    1 | 0

    28-11-2019 20:33  

    Отключить всю рекламу на сайте

      Дорогой пользователь! Огромная просьба, поблагодарите релизера, оцените раздачу и оставьте свои комментарий, если Вы скачали Снегурочка через торрент бесплатно! Внесите свою лепту в развитие PiratBit!
      Комментировать посты могут только пользователи прошедшие не сложную регистрацию
      Показать сообщения:    

      Снегурочка через торрент
      Скачать бесплатно Снегурочка
      Снегурочка скачать торрент
      Снегурочка смотреть онлайн
      Cкачать фильм Снегурочка бесплатно
      Снегурочка скачать торрент в хорошем качестве
      Снегурочка смотреть онлайн бесплатно в хорошем качестве


      Вы не можете начинать темы
      Вы не можете отвечать на сообщения
      Вы не можете редактировать свои сообщения
      Вы не можете удалять свои сообщения
      Вы не можете голосовать в опросах
      Вы не можете прикреплять файлы к сообщениям
      Вы можете скачивать файлы