MEGA SALE -50% FORZA HORIZON 4 ULTIMATE+ВСЕ DLC+ОНЛАЙН всего за 599р. 299 руб. (супер цена). Внимание количество ограничено!!!

iTunes

1+1

iTunes

мы

iTunes

1

iTunes

Чернобыль

1 сезон

Ральф против интернета

Лицензия

ПШазам

Лицензия

Игра престолов

Лицензия

30
pack

ВАЖНО

!!Акция!!

Alien_RageХит недели

RePack

Resident Evil 21

ИГРА 18+

pack

RePack

Metro:Exodus

!!Акция!!

Alien_Rage

RePack

fifa19

RePack

Assassins Creed: Odyssey

RePack

NEED FOR SPEED™ PAYBACK

3 сезон

9 сезон

Бесстыжие 9 сезон

Все сериалы

все сериалы на PB.wtf

RePack

FAR CRY 5
Ребята, катастрофически не хватает 7730р. для оплаты серверов за ИЮЛЬ (всвязи с блокировками трафик упал в 3 раза), 1-2р., выручайте.
  

Хранители (Режиссерская версия) / Watchmen (Director's cut) (Зак Снайдер) [2009 г., фантастика, боевик, драма, детектив HDRip-AVC] Дубляж + AVO [Д.Строев] (От R.G. PiratFilms) pb.wtf

Хранители через торрент pb.wtf

Раздают: 1 [ 0 KB/s ]
Размер: 2.92 GB | Добавлен: 5 лет 4 мес. назад | Торрент скачан:912 раз
Скачать  

11-04-2014 19:41 Хранители Скачать торрент  

Хранители\Watchmen Год выпуска: 2009
Страна: США
Жанр: фантастика, боевик, драма, детектив
Продолжительность: 03:06:28
Перевод: Дубляж со вставками многоголосного перевода на расширенные места (Киномания) + авторский (одноголосый), без цензуры (Денис Строев)

Режиссер: Зак Снайдер

В ролях: Патрик Уилсон, Мэттью Гуд, Малин Акерман, Джеки Эрл Хейли, Билли Крудап, Джеффри Дин Морган, Карла Гуджино, Мэтт Фрюэр, Стивен МакХэтти, Лаура Меннелл и др.

Описание: Действие картины разворачивается в параллельной реальности, в Америке 1985 года. В этом мире супергерои стали частью повседневной жизни общества, а Часы Судного Дня, застыв в пяти минутах от полуночи, отсчитывают время до столкновения ведущих мировых держав. После убийства одного из своих прежних коллег Роршах — супергерой, никогда не снимающий маски, — полон решимости свершить суд Линча.

Он начинает расследование заговора, призванного уничтожить или дискредитировать всех супергероев прошлого и настоящего. Он собирает своих соратников — отставной легион борцов с преступностью, но лишь один из них обладает подлинной силой. Постепенно Роршах осознает пугающий масштаб заговора, связанного с общим прошлым героев и сулящего катастрофические последствия в будущем. Они хранят наш покой, но кто охранит нас от Хранителей?

Качество: HDRip-AVC
Формат: MKV
Видео кодек: AVC
Аудио кодек: AC3
Видео: AVC, 1056x440 (2.40:1), 23.976 fps, 1 149 Kbps (0.103 bit/pixel)
Аудио#1: AC-3, 48.0 KHz, 6 ch, 640 Kbps, CBR Дубляж (со вставками Киномании)
Аудио#2: AC-3, 48.0 KHz, 6 ch, 448 Kbps, CBR авторский (одноголосый), без цензуры) Денис Строев
Релиз от: Рип by White Smoke

Код:

---[Information] [11.04.2014 1:00:07] x264 [info]: frame I:59    Avg QP:17.73  size: 37149  PSNR Mean Y:47.09 U:51.12 V:50.98 Avg:48.02 Global:46.89
---[Information] [11.04.2014 1:00:07] x264 [info]: frame P:501   Avg QP:20.84  size: 11234  PSNR Mean Y:45.46 U:50.34 V:50.22 Avg:46.49 Global:44.68
---[Information] [11.04.2014 1:00:07] x264 [info]: frame B:1990  Avg QP:22.65  size:  3701  PSNR Mean Y:45.69 U:51.09 V:50.95 Avg:46.80 Global:44.21
---[Information] [11.04.2014 1:00:07] x264 [info]: consecutive B-frames:  3.4%  1.7%  5.1% 14.4% 20.4% 34.4%  8.8%  3.8%  8.1%

Общее
Уникальный идентификатор         : 242067264333484957553409963197981576900 (0xB61C75944387C17188E88CEF41D0CEC4)
Полное имя                       : C:\Games\Watchmen.2009.HDRip-AVC.by.White Smoke.R.G. PiratFilms.mkv
Формат                           : Matroska
Размер файла                     : 2,92 Гбайт
Продолжительность                : 3 ч. 6 м.
Общий поток                      : 2239 Кбит/сек
Название фильма                  : Watchmen.2009.HDRip-AVC.by.White Smoke.R.G. PiratFilms.mkv
Дата кодирования                 : UTC 2014-04-11 13:05:44
Программа кодирования            : mkvmerge v6.8.0 ('Theme for Great Cities') 64bit built on Mar  2 2014 21:34:26
Библиотека кодирования           : libebml v1.3.0 + libmatroska v1.4.1
Обложка                          : Yes

Видео
Идентификатор                    : 1
Формат                           : AVC
Формат/Информация                : Advanced Video Codec
Профиль формата                  : High@L4.1
Параметр CABAC формата           : Да
Параметр ReFrames формата        : 10 кадры
Идентификатор кодека             : V_MPEG4/ISO/AVC
Продолжительность                : 3 ч. 6 м.
Битрейт                          : 1149 Кбит/сек
Ширина                           : 1056 пикс.
Высота                           : 440 пикс.
Соотношение сторон               : 2,40:1
Частота кадров                   : 23,976 кадр/сек
Цветовое пространство            : YUV
Подвыборка цветности             : 4:2:0
Битовая глубина                  : 8 бит
Тип развёртки                    : Прогрессивная
Бит/(Пиксели*Кадры)              : 0.103
Размер потока                    : 1,44 Гбайт (49%)
Библиотека кодирования           : x264 core 138 r2358 9e941d1
Настройки программы              : cabac=1 / ref=10 / deblock=1:-3:-3 / analyse=0x3:0x113 / me=umh / subme=9 / psy=1 / psy_rd=1.00:0.00 / mixed_ref=1 / me_range=32 / chroma_me=1 / trellis=2 / 8x8dct=1 / cqm=0 / deadzone=21,11 / fast_pskip=0 / chroma_qp_offset=-2 / threads=6 / lookahead_threads=1 / sliced_threads=0 / nr=0 / decimate=1 / interlaced=0 / bluray_compat=0 / constrained_intra=0 / bframes=10 / b_pyramid=2 / b_adapt=2 / b_bias=10 / direct=1 / weightb=1 / open_gop=0 / weightp=2 / keyint=240 / keyint_min=23 / scenecut=40 / intra_refresh=0 / rc_lookahead=40 / rc=2pass / mbtree=1 / bitrate=1149 / ratetol=1.0 / qcomp=0.70 / qpmin=0 / qpmax=69 / qpstep=4 / cplxblur=20.0 / qblur=0.5 / ip_ratio=1.40 / aq=1:1.00
Язык                             : English

Аудио #1
Идентификатор                    : 2
Формат                           : AC-3
Формат/Информация                : Audio Coding 3
Расширение режима                : CM (complete main)
Идентификатор кодека             : A_AC3
Продолжительность                : 3 ч. 6 м.
Вид битрейта                     : Постоянный
Битрейт                          : 640 Кбит/сек
Канал(ы)                         : 6 канала(ов)
Расположение каналов             : Front: L C R, Side: L R, LFE
Частота                          : 48,0 КГц
Битовая глубина                  : 16 бит
Метод сжатия                     : С потерями
Размер потока                    : 854 Мбайт (29%)
Заголовок                        : AC3 5.1 640 Kbps (Dubbed, Kinomania uncut)
Язык                             : Russian

Аудио #2
Идентификатор                    : 3
Формат                           : AC-3
Формат/Информация                : Audio Coding 3
Расширение режима                : CM (complete main)
Идентификатор кодека             : A_AC3
Продолжительность                : 3 ч. 6 м.
Вид битрейта                     : Постоянный
Битрейт                          : 448 Кбит/сек
Канал(ы)                         : 6 канала(ов)
Расположение каналов             : Front: L C R, Side: L R, LFE
Частота                          : 48,0 КГц
Битовая глубина                  : 16 бит
Метод сжатия                     : С потерями
Размер потока                    : 598 Мбайт (20%)
Заголовок                        : AVO (Stroev) 5.1 (без цензуры)
Язык                             : Russian


За Обложку к релизу спасибо XLASERpb.wtf



Скачать Хранители через торрент http://pic.kartinco.top/images/6/ptpxb.jpg Скачать фильм Хранители через торрент бесплантно в хорошем качестве Описание: Действие картины разворачивается в параллельной реальности, в Америке 1985 года. В этом мире супергерои стали частью повседневной ... 9.5 10 31
Info! Золотая раздача, скачанное не засчитывается.
Торрент: Зарегистрирован [2014-04-11 19:41] · скачан: 912 раз
Статус: √ проверено
Размер: 2.92 GB
Как cкачать? Как скачать Хранители через торрент | qTorrent

% Раздел Тема Автор DL S | L
Фильмы [HD 720p, 1080p] (Хороший звук DUB, MVO) [ 4.58 GB ] Хранитель / The Keeper [2009 BDRip 720p by msltel] MVO 2 x DVO msltel Скачать
1 | 0
Ultra HD (UHD: 2K, 4K, 8K) — видео сверхвысокой чёткости [ 36.35 GB ] Хранители / Watchmen [2009 UHD BDRip 2160p] DUB + MVO + AVO [Максимальная версия] sheker187 Скачать
2 | 0
Фантастика [ 286 MB ] Александра Лисина - Хранитель [Алевтина Жарова 2019~56 Kbps MP3] oleg8 Скачать
1 | 0
Фильмы [HD 720p, 1080p] (Хороший звук DUB, MVO) [ 9.67 GB ] Хранители / Watchmen [2009 BDRip 1080p HEVC ] Мичман37 Скачать
7 | 0
Документальные фильмы и телепередачи [ 1.89 GB ] Хранители Алтая [2018 Документальный WEB-DL 1080p] Armstrong Скачать
1 | 0
T Фильмы (мультфильмы) cо спонсором показа (Новинки AVI/MKV) [ 1.36 GB ] Хранители душ / Body Keepers [2018 WEB-DLRip Любительский "Синема УС"] oleg8 Скачать
1 | 0
Порно фильмы с сюжетом [ 1.33 GB ] Очень специальные телохранители / Gardes du Corps Tres Speciaux ) [2018 Feature Gonzo Anal Interracial Group Deep Throat Oral Facial Blowjob Cumshots WEB-DL Оригинальный] nn99nn Скачать
1 | 0


>> Регистрируемся здесь <<






Отзывы и комментарии о схеме читаем и пишем здесь: ---> Отзывы и комментарии о схеме

Новые благодарочки в телеграм довольных пользователей:
скриншот   скриншот   скриншот   скриншот   скриншот

02-05-2015 18:35 Хранители Скачать торрент  

Очередной шедевр от Зака Снайдера. Но фильм не для всех.pb.wtf



11-02-2016 06:05 Хранители Скачать торрент  

дайте скорости пожалуйстаpb.wtf



08-08-2019 15:21 Хранители Скачать торрент  

дайте скорости пожалуйстаpb.wtf



    Дорогой пользователь! Огромная просьба, поблагодарите релизера, оцените раздачу и оставьте свои комментарий, если Вы скачали Хранители через торрент бесплатно! Внесите свою лепту в развитие PiratBit!
    Комментировать посты могут только пользователи прошедшие не сложную регистрацию
    Показать сообщения:    

    Хранители через торрент
    Скачать бесплатно Хранители
    Хранители скачать торрент
    Хранители смотреть онлайн
    Cкачать фильм Хранители бесплатно
    Хранители скачать торрент в хорошем качестве
    Хранители смотреть онлайн бесплатно в хорошем качестве


    Вы не можете начинать темы
    Вы не можете отвечать на сообщения
    Вы не можете редактировать свои сообщения
    Вы не можете удалять свои сообщения
    Вы не можете голосовать в опросах
    Вы не можете прикреплять файлы к сообщениям
    Вы можете скачивать файлы