2 сезон

iTunes

1 сезон

1

iTunes

iTunes

iTunes

1 сезон

RePack

30

ИГРА 18+

pack

ВАЖНО

!!Акция!!

Alien_RageХит недели

RePack

MK11
pack

Забери бонус

RePack

jed

!!Акция!!

Alien_Rage

RePack

fifa19

RePack

Assassins Creed: Odyssey

RePack

NEED FOR SPEED™ PAYBACK

4 сезон

9 сезон

Бесстыжие 9 сезон

Все сериалы

все сериалы на PB.wtf

RePack

FAR CRY 5
  

Гагарин. Первый в космосе (Павел Пархоменко) [2013 г., История, Биография, Драма, BDRip] pb.wtf

Гагарин. Первый в космосе через торрент pb.wtf

Размер: 2.16 GB | Добавлен: 6 лет 6 мес. назад | Торрент скачан:283 раза
Скачать  

12-04-2014 06:16 Гагарин. Первый в космосе Скачать торрент  

Гагарин. Первый в космосе
Год выпуска: 2013
Страна: Россия
Жанр: История, Биография, Драма
Продолжительность: 01:48:11

Режиссер: Павел Пархоменко
Продюссер: Олег Капанец, Дмитрий Мурин, Энтони Уоллер

Дата мировой премьеры: 6 июня 2013
Дата российской премьеры: 6 июня 2013, «Централ Партнершип»
Дата выхода DVD/Blu-Ray релиза: 18 июля 2013, «CD Land»



В ролях: Ярослав Жалнин, Михаил Филиппов, Владимир Стеклов, Ольга Иванова, Вадим Мичман, Даниил Воробьев, Надежда Маркина, Виктор Проскурин, Инга Стрелкова-Оболдина, Сергей Калашников

Описание: Фильм посвящен первым шагам человечества на пути освоения космоса и непосредственно судьбе первого космонавта Ю. А. Гагарина. Основной лейтмотив — борьба за право быть первым: соревнование в первом отряде космонавтов; конкуренция технологий в ракетостроении; противостояние сверхдержав — СССР и США.

В первый отряд космонавтов отбирали из трёх тысяч летчиков-истребителей по всей стране. В легендарную двадцатку попали лучшие из лучших. Кто из них полетит первым, не знал никто. На этом пути пришлось бороться не только с земным притяжением…

Качество: BDRip
Формат: AVI
Видео кодек: XviD
Аудио кодек: AC3
Видео: 704x400, 25.000 fps, ~2395 Kbps
Аудио: AC3 5.1 ch, 448 Kbps, 48.0 KHz
скриншот   скриншот   скриншот   скриншот  
скриншот   скриншот   скриншот   скриншот  

Код:

E:\фильмы\Gagarin.Pervyi.V.Kosmose.2013.RUS.BDRip.XviD.AC3.-HQ-ViDEO.avi
   General
      Complete name : E:\фильмы\Gagarin.Pervyi.V.Kosmose.2013.RUS.BDRip.XviD.AC3.-HQ-ViDEO.avi
      Format : AVI
      Format/Info : Audio Video Interleave
      Format profile : OpenDML
      File size : 2.16 GiB
      Duration : 1h 48mn
      Overall bit rate : 2 855 Kbps
      Movie name : Gagarin: Pervyy v kosmose (2013)
      Director : Vaippp
      Genre : Drama/History
      Writing application : VirtualDubModRus 1.5.10.2 (build 2542/release)
      Original source form/Name : Movie
      Copyright : HQ-ViDEO
      Comment : BDRip
   Video #0
      ID : 0
      Format : MPEG-4 Visual
      Format profile : AdvancedSimple@L5
      Format settings, BVOP : Yes
      Format settings, QPel : No
      Format settings, GMC : No warppoints
      Format settings, Matrix : Custom
      Codec ID : XVID
      Codec ID/Hint : XviD
      Duration : 1h 48mn
      Bit rate : 2 395 Kbps
      Width : 704 pixels
      Height : 400 pixels
      Display aspect ratio : 16:9
      Frame rate : 25.000 fps
      Resolution : 24 bits
      Colorimetry : 4:2:0
      Scan type : Progressive
      Bits/(Pixel*Frame) : 0.340
      Stream size : 1.81 GiB (84%)
      Writing library : XviD 73
   Audio #1
      ID : 1
      Format : AC-3
      Format/Info : Audio Coding 3
      Codec ID : 2000
      Duration : 1h 48mn
      Bit rate mode : Constant
      Bit rate : 448 Kbps
      Channel(s) : 6 channels
      Channel positions : Front: L C R, Surround: L R, LFE
      Sampling rate : 48.0 KHz
      Stream size : 347 MiB (16%)
      Alignment : Split accross interleaves
      Interleave, duration : 40 ms (1.00 video frame)
      Interleave, preload duration : 500 ms



pb.wtf



Скачать Гагарин. Первый в космосе через торрент http://pic.kartinco.top/images/6/szjcz.jpg Скачать фильм Гагарин. Первый в космосе через торрент бесплантно в хорошем качестве Описание: Фильм посвящен первым шагам человечества на пути освоения космоса и непосредственно судьбе первого космонавта Ю. А. Гагарина. ... 9.8 10 18
Info! Золотая раздача, скачанное не засчитывается.
Торрент: Зарегистрирован [2014-04-12 06:16] · скачан: 283 раз
Статус: √ проверено
Размер: 2.16 GB
Как cкачать? Как скачать Гагарин. Первый в космосе через торрент | qTorrent

% Раздел Тема Автор DL S | L
Наши фильмы (HD, WEB-DL 720p, 1080p) [ 13.26 GB ] Гагарин. Первый в космосе [2013 биография история BDRip 1080p] -Lexx- Скачать
1 | 0
Наши новые фильмы 2013 [ 2.06 GB ] Гагарин. Первый в космосе [2013 биография история BDRip ] coc900 Скачать
1 | 0
Наши новые фильмы 2013 [ 2.19 GB ] Гагарин. Первый в космосе [2013 биография история BDRip-AVC ] AlexG77 Скачать
1 | 0
Наши новые фильмы 2013 [ 1.46 GB ] Гагарин. Первый в космосе [2013 биография история BDRip ][ лицензия ] Ворон Скачать
1 | 0
Наши новые фильмы 2013 [ 743 MB ] Гагарин. Первый в космосе [2013 биография история BDRip-AVC] sokol_ok Скачать
2 | 0
Наши новые фильмы 2013 [ 1.45 GB ] Гагарин. Первый в космосе [2013 биография BDRip-AVC] sokol_ok Скачать
2 | 0
Наши новые фильмы 2013 [ 2.04 GB ] Гагарин. Первый в космосе [2013 биография история DVDRip-AVC] лицензия mihis Скачать
1 | 0

28-11-2019 20:33  

Отключить всю рекламу на сайте

12-04-2014 09:53 Гагарин. Первый в космосе Скачать торрент  

а почему нажатие кнопки посмотреть список поблагодаривших не даёт никакого результата?админы, ау...pb.wtf



12-04-2014 10:34 Гагарин. Первый в космосе Скачать торрент  

mrAmerica писал(а):

а почему нажатие кнопки посмотреть список поблагодаривших не даёт никакого результата?админы, ау...

у меня нормpb.wtf



    Дорогой пользователь! Огромная просьба, поблагодарите релизера, оцените раздачу и оставьте свои комментарий, если Вы скачали Гагарин. Первый в космосе через торрент бесплатно! Внесите свою лепту в развитие PiratBit!
    Комментировать посты могут только пользователи прошедшие не сложную регистрацию
    Показать сообщения:    

    Гагарин. Первый в космосе через торрент
    Скачать бесплатно Гагарин. Первый в космосе
    Гагарин. Первый в космосе скачать торрент
    Гагарин. Первый в космосе смотреть онлайн
    Cкачать фильм Гагарин. Первый в космосе бесплатно
    Гагарин. Первый в космосе скачать торрент в хорошем качестве
    Гагарин. Первый в космосе смотреть онлайн бесплатно в хорошем качестве


    Вы не можете начинать темы
    Вы не можете отвечать на сообщения
    Вы не можете редактировать свои сообщения
    Вы не можете удалять свои сообщения
    Вы не можете голосовать в опросах
    Вы не можете прикреплять файлы к сообщениям
    Вы можете скачивать файлы