Ссылка на приватное зеркало нашего сайта всего за 1$. Внимание количество ограничено!!!

2 сезон

iTunes

1 сезон

1

2 сезон

2 сезон

iTunes

1 сезон

RePack

30

Новинка

ВАЖНО

ИГРА 18+

pack

RePack

MK11
pack

Забери бонус

RePack

jed

!!Акция!!

Alien_Rage

RePack

fifa19

RePack

Assassins Creed: Odyssey

RePack

NEED FOR SPEED™ PAYBACK

4 сезон

9 сезон

Бесстыжие 9 сезон

Все сериалы

все сериалы на PB.wtf

RePack

FAR CRY 5
  

Полиция Гавайев / Hawaii Five-0 / Сезон: 4 / Cерии: 1-22 из 22 (Брэд Тернер, Эрик Ланёвилль, Стив Бойум) [2013-2014 г., боевик, драма, криминал, WEB-DL, 720p] MVO (LostFilm) pb.wtf

Полиция Гавайев через торрент pb.wtf

Размер: 32.28 GB | Добавлен: 6 лет 6 мес. назад | Торрент скачан:0 раз
Скачать  

12-04-2014 14:11 Полиция Гавайев Скачать торрент  

Полиция Гавайев / Hawaii Five-0
Год выпуска: 2013
Страна: США
Жанр: боевик, драма, криминал
Продолжительность: ~ 00:45:00
Перевод: Профессиональный многоголосый LostFilm
Субтитры: English
Режиссер: Брэд Тернер, Эрик Ланёвилль, Стив Бойум




В ролях: Алекс О’Локлин, Скотт Каан, Дэниэл Дэ Ким, Грейс Пак, Терри О'Куинн, Тайлор Уайли, Teilor Grubbs, Маси Ока, Клер Вандер Бум, Дэннис Чун, Марк Дакаскос

Описание: Детектив Стив МакГарретт, бывший морской офицер с массой наград, а теперь полицейский, возвращается в Оаху расследовать убийство отца. Он остается на острове, после того, как губернатор штата Гавайи убедил его возглавить новую команду. Команда будет действовать по его правилам, при поддержке губернатора, без бюрократических проволочек, и с полным иммунитетом, все это — чтобы поймать самую крупную «дичь» в городе.

К МакГаррету присоединяется детектив Дэнни «Данно» Уильямс, недавно переведенный из Нью-Джерси полицейский, который предпочел бы небоскребы пляжам, но готов бороться с преступностью, чтобы его 8-летняя дочь чувствовала себя на островах в безопасности; и Чин Хо Келли, бывший детектив полиции Гонолулу, которого ошибочно обвинили в коррупции, и который когда-то был протеже отца МакГаррета. Двоюродная сестра Чина, Коно, прекрасная и бесстрашная уроженка островов, недавно выпустилась из академии, и рвется доказать, что она достойна места в элите департамента. МакГаррет клянется завершить дело отца, а члены нового спецотряда Five-O, может, и грызутся друг с другом, но настроены уничтожить преступность в пятидесятом штате.

Качество: WEB-DL 720p
Формат: MKV
Видео кодек: AVC
Аудио кодек: AC3
Видео: 1280x720 at 23.976 fps, MPEG-4 AVC, ~4000 kbps avg
Аудио#1: 48 kHz, AC3, 3/2 (L,C,R,l,r) + LFE ch, ~384.00 kbps avg |Многоголосый закадровый, LostFilm|
Аудио#2: 48 kHz, AC3, 3/2 (L,C,R,l,r) + LFE ch, ~384.00 kbps avg |English|

Золотой глобус, 2011 год
Номинации (1):
Лучший актёр второго плана мини-сериала или фильма на ТВ (Скотт Каан)
01. Мы нужны друг другу / Aloha Ke Kahi I Ke Kahi
02. Не в своей стихии / A'ale Ma'a Wau
03. Правда внутри / Ka 'oia'i'o ma loko
04. С сегодняшнего дня... / A ia la aku
05. Падший герой / Kupu'eu
06. Сломанные / Kupouli 'la
07. Под прикрытием / Ua Nalohia
08. Партнёры поневоле / Akanahe
09. С днём благодарения / Ha'uoli La Ho'omoaika'i
10. Чти отца своего / Ho'onani Makuakane
11. Сувенир / Pukana
12. Тогда и сейчас / 'O kela me keia manawa
13. Одолжение / Hana Lokomaika'i
14. Грехи отца / Na hala a ka makua
15. Спрятанные секреты / Pale 'la
16. Огонь в небе / Hoku Welowelo
17. В глубине / Ma lalo o ka 'ili
18. Воссоединение / Ho'i Hou
19. Ku I Ka Pili Koko / Братья по крови
20: Pe'epe'e Kainaka / Они среди нас
21: Makani 'Olu a Holo Malie / Попутного ветра
22: O ka Pili'Ohana ka 'Oi / Семья прежде всего



C:\Users\Сергей\Downloads\Hawaii.Five-0.S04.720p.WEB-DL.Rus.Eng.HDCLUB\Hawaii.Five-0.S04E01.720p.WEB-DL.Rus.Eng.HDCLUB.mkv
General
Unique ID : 196806686063732664268607171422588845207 (0x940F96C85939CCDBAE689266C0DD3C97)
Complete name : C:\Users\Сергей\Downloads\Hawaii.Five-0.S04.720p.WEB-DL.Rus.Eng.HDCLUB\Hawaii.Five-0.S04E01.720p.WEB-DL.Rus.Eng.HDCLUB.mkv
Format : Matroska
Format version : Version 4 / Version 2
File size : 1.46 GiB
Duration : 43mn 16s
Overall bit rate : 4 843 Kbps
Movie name : Hawaii Five-0 [Season 4] (2013) - Release for HDCLUB by vlaluk
Encoded date : UTC 2013-09-30 11:19:44
Writing application : mkvmerge v6.3.0 ('You can't stop me!') built on Jun 28 2013 20:09:41
Writing library : libebml v1.3.0 + libmatroska v1.4.0
Video #1
ID : 1
Format : AVC
Format/Info : Advanced Video Codec
Format profile : High@L3.1
Format settings, CABAC : No
Format settings, ReFrames : 2 frames
Codec ID : V_MPEG4/ISO/AVC
Duration : 43mn 16s
Bit rate : 3 978 Kbps
Width : 1 280 pixels
Height : 720 pixels
Display aspect ratio : 16:9
Frame rate mode : Constant
Frame rate : 23.976 fps
Color space : YUV
Chroma subsampling : 4:2:0
Bit depth : 8 bits
Scan type : Progressive
Bits/(Pixel*Frame) : 0.180
Stream size : 1.20 GiB (82%)
Title : Season 4, Episode 01: Aloha Ke Kahi I Ke Kahi / Мы нужны друг другу - Release for HDCLUB by vlaluk
Language : English
Default : Yes
Forced : No
Color primaries : BT.709
Transfer characteristics : BT.709
Matrix coefficients : BT.709
Audio #2
ID : 2
Format : AC-3
Format/Info : Audio Coding 3
Mode extension : CM (complete main)
Format settings, Endianness : Big
Codec ID : A_AC3
Duration : 43mn 16s
Bit rate mode : Constant
Bit rate : 384 Kbps
Channel(s) : 6 channels
Channel positions : Front: L C R, Side: L R, LFE
Sampling rate : 48.0 KHz
Bit depth : 16 bits
Compression mode : Lossy
Stream size : 119 MiB (8%)
Title : DD 5.1 @ 384 kbps @ LostFilm
Language : Russian
Default : Yes
Forced : No
Audio #3
ID : 3
Format : AC-3
Format/Info : Audio Coding 3
Mode extension : CM (complete main)
Format settings, Endianness : Big
Codec ID : A_AC3
Duration : 43mn 16s
Bit rate mode : Constant
Bit rate : 384 Kbps
Channel(s) : 6 channels
Channel positions : Front: L C R, Side: L R, LFE
Sampling rate : 48.0 KHz
Bit depth : 16 bits
Compression mode : Lossy
Stream size : 119 MiB (8%)
Title : DD 5.1 @ 384 kbps
Language : English
Default : No
Forced : No
Text #4
ID : 4
Format : UTF-8
Codec ID : S_TEXT/UTF8
Codec ID/Info : UTF-8 Plain Text
Title : English @ SRT
Language : English
Default : No
Forced : No

pb.wtf



Скачать Полиция Гавайев через торрент http://pic.kartinco.top/images/6/m2xwh.jpg Скачать фильм Полиция Гавайев через торрент бесплантно в хорошем качестве Описание: Детектив Стив МакГарретт, бывший морской офицер с массой наград, а теперь полицейский, возвращается в Оаху расследовать убийство ... 10 10 1
Info! Золотая раздача, скачанное не засчитывается.
Торрент: Зарегистрирован [2014-05-13 16:00] · скачан: 0 раз
Статус: √ проверено
Размер: 32.28 GB
Как cкачать? Как скачать Полиция Гавайев через торрент | qTorrent



Последний раз редактировалось: Stonebridge (2014-05-15 12:09), всего редактировалось 4 раз(а)

28-11-2019 20:33  

Отключить всю рекламу на сайте

12-04-2014 16:39 Полиция Гавайев Скачать торрент  

Внимание!!! Раздача ведется путем добавления новых серий.pb.wtf



29-04-2014 07:21 Полиция Гавайев Скачать торрент  

Добавлена 19-я серия.pb.wtf



13-05-2014 15:48 Полиция Гавайев Скачать торрент  

Добавлена 20-я, 21-я, 22-я серия.pb.wtf



    Дорогой пользователь! Огромная просьба, поблагодарите релизера, оцените раздачу и оставьте свои комментарий, если Вы скачали Полиция Гавайев через торрент бесплатно! Внесите свою лепту в развитие PiratBit!
    Комментировать посты могут только пользователи прошедшие не сложную регистрацию
    Показать сообщения:    

    Полиция Гавайев через торрент
    Скачать бесплатно Полиция Гавайев
    Полиция Гавайев скачать торрент
    Полиция Гавайев смотреть онлайн
    Cкачать фильм Полиция Гавайев бесплатно
    Полиция Гавайев скачать торрент в хорошем качестве
    Полиция Гавайев смотреть онлайн бесплатно в хорошем качестве


    Вы не можете начинать темы
    Вы не можете отвечать на сообщения
    Вы не можете редактировать свои сообщения
    Вы не можете удалять свои сообщения
    Вы не можете голосовать в опросах
    Вы не можете прикреплять файлы к сообщениям
    Вы можете скачивать файлы