2 сезон

iTunes

MVO

1

2 сезон

iTunes

iTunes

1 сезон

RePack

30

Новинка

ВАЖНО

ИГРА 18+

pack

RePack

MK11
pack

Легкие деньги

RePack

jed

RePack

fifa19

RePack

RDR2

RePack

NEED FOR SPEED™ PAYBACK

4 сезон

9 сезон

Бесстыжие 9 сезон

Все сериалы

все сериалы на PB.wtf

RePack

FAR CRY 5

Anonymous, добрый день, мы не успеваем собрать деньги на оплату серверов за декабрь и январь, помогите нам пожалуйста в это трудное время. В качестве благодарности мы отключим Вам всю рекламу на сайте (укажите свой ник в строку Ваше имя)!

×
  
Magnet ссылка

Команда восемь: В тылу врага / Seal Team Eight: Behind Enemy Lines (Роэль Рейн / Roel Reiné) [2014, США, боевик, военный, HDRip,Профессиональный (многоголосый, закадровый) [iTunes] pb.wtf

Команда восемь: В тылу врага через торрент pb.wtf

Размер: 1.37 GB | Добавлен: 6 лет 9 мес. назад | Торрент скачан:2607 раз
Скачать  

12-04-2014 16:25 Команда восемь: В тылу врага Скачать торрент  

Команда восемь: В тылу врага / Seal Team Eight: Behind Enemy Lines

  • Год выпуска: 2014
  • Страна:США
  • Жанр:боевик, военный
  • Продолжительность:01:37:39
  • Перевод:Профессиональный (многоголосый, закадровый) [iTunes]
  • Субтитры: Нет
  • Режиссер: Роэль Рейн / Roel Reiné
  • В ролях:

    Бонни Ли Буман (Officer), Дилан Эди (Amjad), Майкл Эверсон, Лерой Гопал (General Ntonga), Антон Джуст, Юджин Хумбанйива (Arms cache manager), Лэнгли Кирквуд (Lt.Parker), Орели Мерьель (Zoe Jelani), Дэррон Каллиган (Vic), Колин Мосс, Энтони Осейеми, Лекс Шрэпнел (Case)

    • Описание:
      Команда Восемь должна бороться далеко в Африке, на секретном урановом руднике и помешать своему опасному врагу провезти контрабандой опасное оружие за границу.

    Мировая премьера:1 марта 2014

    • Качество: HDRip
    • Формат: AVI
    • Видео кодек: XviD
    • Аудио кодек:AC3
    • Видео: XviD, 720x400 (16:9), 1803 kbps, 23,976 fps, 0,261 bpp
    • Аудио: AC3 / 2.0 / 48 kHz / 192 kbps / 16 bit


    Код:

    General
    Complete name                            : D:\Торенты\Seal.Team.8.Behind.Enemy.Lines.2014.P.HDRip.1400Mb.avi
    Format                                   : AVI
    Format/Info                              : Audio Video Interleave
    File size                                : 1.37 GiB
    Duration                                 : 1h 37mn
    Overall bit rate                         : 2 005 Kbps
    Writing application                      : VirtualDubMod 1.5.10.2 (build 2540/release)
    Writing library                          : VirtualDubMod build 2540/release

    Video
    ID                                       : 0
    Format                                   : MPEG-4 Visual
    Format profile                           : Advanced Simple@L5
    Format settings, BVOP                    : 2
    Format settings, QPel                    : No
    Format settings, GMC                     : No warppoints
    Format settings, Matrix                  : Custom
    Codec ID                                 : XVID
    Codec ID/Hint                            : XviD
    Duration                                 : 1h 37mn
    Bit rate                                 : 1 803 Kbps
    Width                                    : 720 pixels
    Height                                   : 400 pixels
    Display aspect ratio                     : 16:9
    Frame rate                               : 23.976 fps
    Color space                              : YUV
    Chroma subsampling                       : 4:2:0
    Bit depth                                : 8 bits
    Scan type                                : Progressive
    Compression mode                         : Lossy
    Bits/(Pixel*Frame)                       : 0.261
    Stream size                              : 1.23 GiB (90%)
    Writing library                          : XviD 1.2.1 (UTC 2008-12-04)

    Audio
    ID                                       : 1
    Format                                   : AC-3
    Format/Info                              : Audio Coding 3
    Mode extension                           : CM (complete main)
    Codec ID                                 : 2000
    Duration                                 : 1h 37mn
    Bit rate mode                            : Constant
    Bit rate                                 : 192 Kbps
    Channel(s)                               : 2 channels
    Channel positions                        : Front: L R
    Sampling rate                            : 48.0 KHz
    Bit depth                                : 16 bits
    Compression mode                         : Lossy
    Stream size                              : 134 MiB (10%)
    Alignment                                : Split accross interleaves
    Interleave, duration                     : 42 ms (1.00 video frame)
    Interleave, preload duration             : 500 ms

    Скриншоты:

    Каталог Новинок (Фильмы-трейлеры, Игры, Сериалы, Мультфильмы)

    © Оформление by Raven
    pb.wtf



  • Скачать Команда восемь: В тылу врага через торрент http://static.piratbit.cc/piratpic/6/bjrq4.jpg Скачать фильм Команда восемь: В тылу врага через торрент бесплантно в хорошем качестве Описание:Команда Восемь должна бороться далеко в Африке, на секретном урановом руднике и помешать своему опасному врагу провезти ... 9.3 10 66
    Торрент: Зарегистрирован [2014-04-12 16:25] · скачан: 2 607 раз
    Статус: √ проверено
    Размер: 1.37 GB
    Как cкачать? Как скачать Команда восемь: В тылу врага через торрент | UTorrent

    % Раздел Тема Автор DL S | L
    Фильмы (Blu-ray, BD-Remux, HDDVD) [ 25.59 GB ] Команда восемь: В тылу врага / Seal Team Eight: Behind Enemy Lines [2014 военный BDRemux] MVO Ворон Скачать
    1 | 0


    Последний раз редактировалось: Ворон (2014-04-12 21:59), всего редактировалось 3 раз(а)

    28-11-2019 20:33  

    Отключить всю рекламу на сайте


    12-04-2014 16:50 Команда восемь: В тылу врага Скачать торрент  

    Тема пушек и сисек раскрыта sarcasticpb.wtf



    12-04-2014 16:55 Команда восемь: В тылу врага Скачать торрент  

    Очередной ТРЕШАК pb.wtf



    12-04-2014 16:59 Команда восемь: В тылу врага Скачать торрент  

    По третьему скрину видно что тема сисек как минимум в три раза перевыполненаpb.wtf



    12-04-2014 17:06 Команда восемь: В тылу врага Скачать торрент  

    да и сиськи не алё какие-то. "опасный враг с опасным оружием") трепещите, селяне)pb.wtf



    12-04-2014 17:29 Команда восемь: В тылу врага Скачать торрент  

    Бравые педикиpb.wtf



    14-04-2014 10:06 Команда восемь: В тылу врага Скачать торрент  

    мне после слов "секретный урановый рудник" как то даже стрёмно качатьpb.wtf



    27-04-2014 08:32 Команда восемь: В тылу врага Скачать торрент  

    aladar003 писал(а):

    мне после слов "секретный урановый рудник" как то даже стрёмно качать

    yes yes yes yes yes yespb.wtf



    16-06-2014 18:58 Команда восемь: В тылу врага Скачать торрент  

    после 3 фотки реакция на 4 фотке ахахахахpb.wtf



      Дорогой пользователь! Огромная просьба, поблагодарите релизера, оцените раздачу и оставьте свои комментарий, если Вы скачали Команда восемь: В тылу врага через торрент бесплатно! Внесите свою лепту в развитие PiratBit!
      Комментировать посты могут только пользователи прошедшие не сложную регистрацию
      Показать сообщения:    

      Команда восемь: В тылу врага через торрент
      Скачать бесплатно Команда восемь: В тылу врага
      Команда восемь: В тылу врага скачать торрент
      Команда восемь: В тылу врага смотреть онлайн
      Cкачать фильм Команда восемь: В тылу врага бесплатно
      Команда восемь: В тылу врага скачать торрент в хорошем качестве
      Команда восемь: В тылу врага смотреть онлайн бесплатно в хорошем качестве


      Вы не можете начинать темы
      Вы не можете отвечать на сообщения
      Вы не можете редактировать свои сообщения
      Вы не можете удалять свои сообщения
      Вы не можете голосовать в опросах
      Вы не можете прикреплять файлы к сообщениям
      Вы можете скачивать файлы