Ссылка на приватное зеркало нашего сайта всего за 1$. Внимание количество ограничено!!!

2 сезон

iTunes

1 сезон

1

iTunes

iTunes

iTunes

1 сезон

RePack

30

ИГРА 18+

pack

ВАЖНО

!!Акция!!

Alien_RageХит недели

RePack

MK11
pack

Забери бонус

RePack

jed

!!Акция!!

Alien_Rage

RePack

fifa19

RePack

Assassins Creed: Odyssey

RePack

NEED FOR SPEED™ PAYBACK

4 сезон

9 сезон

Бесстыжие 9 сезон

Все сериалы

все сериалы на PB.wtf

RePack

FAR CRY 5
  

Машина / The Machine (Карадог В. Джеймс / Caradog W. James) [2013, Великобритания, фантастика, триллер, HDRip,Любительский (одноголосый)[datynet] pb.wtf

Машина через торрент pb.wtf

Размер: 1.34 GB | Добавлен: 6 лет 6 мес. назад | Торрент скачан:619 раз
Скачать  

12-04-2014 17:46 Машина Скачать торрент  

Машина / The Machine
Год выпуска: 2013
Страна: Великобритания
Жанр: фантастика, триллер
Продолжительность: 01:26:46
Перевод: Любительский (одноголосый)[datynet]
Субтитры: Нет

Режиссер: Карадог В. Джеймс / Caradog W. James
В ролях: Кейти Лотц (Ava), Тоби Стивенс (Vincent), Сэм Хэзелдайн (James), Pooneh Hajimohammadi (Suri), Дэнис Лосон (Thomson), Ли Николас Харрис (Implant Soldier Harris), John Stylianou (Soldier), Бен МакГрегор (Implant Soldier Ben), Хелен Гриффин (Mrs. Dawson), Суле Рими (Dr. Giwa-Amu), Алан Лоу (Assassin), Стюарт Мэтьюз (Scientist / Soldier)

Описание: Из-за нестабильной обстановки в мире британское министерство обороны нуждается в получении нового оружия. Ведущий ученый Винсент МакКарти предоставляет свое решение этого вопроса, «Машина» - андроид с непревзойденными физическими способностями. Когда программная ошибка заставляет опытный образец разрушать его лабораторию, МакКарти вербует эксперта по искусственному интеллекту Ава, чтобы помочь ему использовать полный потенциал машины-убийцы.

kinopoisk.ru: 6.714 (22)
imdb.com: 6.60 (396)
MPAA: R - Лицам до 17 лет обязательно присутствие взрослого

Качество: HDRip
Формат: AVI
Видео кодек: XviD
Аудио кодек: MP3
Видео: XviD, 720x400 (16:9), 2008 kbps, 25 fps, 0,279 bpp
Аудио: MP3 / 2.0 / 44 kHz / 192 kbps /

General
Complete name : E:\закачки\The.Machine.2013.avi
Format : AVI
Format/Info : Audio Video Interleave
File size : 1.34 GiB
Duration : 1h 26mn
Overall bit rate : 2 210 Kbps
Writing library : VirtualDub build 34753/release

Video
ID : 0
Format : MPEG-4 Visual
Format profile : Advanced Simple@L5
Format settings, BVOP : 2
Format settings, QPel : No
Format settings, GMC : No warppoints
Format settings, Matrix : Default (H.263)
Muxing mode : Packed bitstream
Codec ID : XVID
Codec ID/Hint : XviD
Duration : 1h 26mn
Bit rate : 2 008 Kbps
Width : 720 pixels
Height : 400 pixels
Display aspect ratio : 16:9
Frame rate : 25.000 fps
Color space : YUV
Chroma subsampling : 4:2:0
Bit depth : 8 bits
Scan type : Progressive
Compression mode : Lossy
Bits/(Pixel*Frame) : 0.279
Stream size : 1.22 GiB (91%)
Writing library : XviD 1.2.1 (UTC 2008-12-04)

Audio
ID : 1
Format : MPEG Audio
Format version : Version 1
Format profile : Layer 3
Codec ID : 55
Codec ID/Hint : MP3
Duration : 1h 26mn
Bit rate mode : Constant
Bit rate : 192 Kbps
Channel(s) : 2 channels
Sampling rate : 44.1 KHz
Compression mode : Lossy
Stream size : 119 MiB (9%)
Alignment : Split accross interleaves
Interleave, duration : 40 ms (1.00 video frame)
Interleave, preload duration : 500 ms
pb.wtf



Скачать Машина через торрент http://i57.fastpic.ru/big/2014/0412/d4/62abedb20e07f6f44ec7ee809a71ead4.jpg Скачать фильм Машина через торрент бесплантно в хорошем качестве Описание: Из-за нестабильной обстановки в мире британское министерство обороны нуждается в получении нового оружия. Ведущий ученый Винсент ... 9.4 10 13
Торрент: Зарегистрирован [2014-04-12 17:46] · скачан: 619 раз
Статус: √ проверено
Размер: 1.34 GB
Как cкачать? Как скачать Машина через торрент | qTorrent

% Раздел Тема Автор DL S | L
* Фильмы [HD 720p, 1080p] (Хороший звук DUB, MVO) [ 5.9 GB ] Машина времени / The Time Machine [2002 HDDVDRip-HEVC 1080p] DUB + 2хMVO + DVO + 2xAVO + VO RealOldGamer Скачать
14 | 3
Порно фильмы HD [ 1.62 GB ] Зависимость от Анальной Трах Машины / Anal Fuck Machine Addiction [2018 All Girl / Lesbian All Sex Anal Masturbation Redhead Sex Machines Sex Toy Play VOD] (Angelina Love Eva Berger Gabriella Kira Thorn Ol Venom Скачать
1 | 2
Фильмы (WEB-DL 720p, 1080p) [ 8.35 GB ] Машина времени / The Time Machine [2002 WEB-DL 1080p от KORSAR] [DUB + 3xMVO + DVO + 3xAVO] filbi1976 Скачать
1 | 0
Фильмы [HD 720p, 1080p] (Хороший звук DUB, MVO) [ 6.25 GB ] Терминатор 3: Восстание машин / Terminator 3: Rise of the Machines [2003 BDRip 1080p HEVC ()] Мичман37 Скачать
1 | 0
Документальные фильмы и телепередачи [ 13.74 GB ] Стив Джобс: Человек в машине / Steve Jobs: The Man in the Machine [2015 Документальный BDRip Любительский ] Бумер Скачать
1 | 0
Документальные фильмы и телепередачи [ 7.07 GB ] Стив Джобс: Человек в машине / Steve Jobs: The Man in the Machine [2015 Документальный BDRip Любительский двухголосый Бумер Скачать
1 | 0
Военное дело [ 745 MB ] Великие боевые машины Второй Мировой: Танки союзников / The Great Fighting Machines of World War 2: Tanks of US Russian and British Armies [1990 Документальный DVDRip] 220v0lt Скачать
1 | 0

28-11-2019 20:33  

Отключить всю рекламу на сайте

12-04-2014 18:45 Машина Скачать торрент  

Как оно? Стоит смотреть? Напишите кому понравилось или не понравилось кино...
Просто судя по семплу кино напоминает ТВ3, отсюда и сомнения...pb.wtf



12-04-2014 19:31 Машина Скачать торрент  

Асамум круче)))pb.wtf



12-04-2014 19:47 Машина Скачать торрент  

Kesady писал(а):

Асамум круче)))

что за Асамум?pb.wtf



12-04-2014 20:44 Машина Скачать торрент  

Почему не качает???????pb.wtf



12-04-2014 23:24 Машина Скачать торрент  

horton2011 писал(а):

[qpost=undefined]что за Асамум?

Код:

The Asylum ([ə'saɪləm], эсайлэм, в переводе — «лечебница, убежище») — американская киностудия и дистрибьютор, специализирующаяся на низкобюджетных direct-to-video фильмах. Главным образом известна по созданию фильмов, имитирующих ожидаемые блокбастеры. За данной категорией фильмов устоялся термин «мокбастер».

Список мокбастеров
http://puu.sh/86jdm.pngpb.wtf



13-04-2014 10:46 Машина Скачать торрент  

Raven писал(а):

horton2011 писал(а):

[qpost=undefined]что за Асамум?

Код:

The Asylum ([ə'saɪləm], эсайлэм, в переводе — «лечебница, убежище») — американская киностудия и дистрибьютор, специализирующаяся на низкобюджетных direct-to-video фильмах. Главным образом известна по созданию фильмов, имитирующих ожидаемые блокбастеры. За данной категорией фильмов устоялся термин «мокбастер».

Список мокбастеров
http://puu.sh/86jdm.png

Спасибо, не знал. Интересно, как их еще не засудили за такое количество плагиата?!...pb.wtf



05-09-2014 16:39 Машина Скачать торрент  

Стоит смотреть?pb.wtf



    Дорогой пользователь! Огромная просьба, поблагодарите релизера, оцените раздачу и оставьте свои комментарий, если Вы скачали Машина через торрент бесплатно! Внесите свою лепту в развитие PiratBit!
    Комментировать посты могут только пользователи прошедшие не сложную регистрацию
    Показать сообщения:    

    Машина через торрент
    Скачать бесплатно Машина
    Машина скачать торрент
    Машина смотреть онлайн
    Cкачать фильм Машина бесплатно
    Машина скачать торрент в хорошем качестве
    Машина смотреть онлайн бесплатно в хорошем качестве


    Вы не можете начинать темы
    Вы не можете отвечать на сообщения
    Вы не можете редактировать свои сообщения
    Вы не можете удалять свои сообщения
    Вы не можете голосовать в опросах
    Вы не можете прикреплять файлы к сообщениям
    Вы можете скачивать файлы