Ссылка на приватное зеркало нашего сайта всего за 1$. Внимание количество ограничено!!!

2 сезон

iTunes

1 сезон

1

iTunes

iTunes

iTunes

1 сезон

RePack

30

ИГРА 18+

pack

ВАЖНО

!!Акция!!

Alien_RageХит недели

RePack

MK11
pack

Забери бонус

RePack

jed

!!Акция!!

Alien_Rage

RePack

fifa19

RePack

Assassins Creed: Odyssey

RePack

NEED FOR SPEED™ PAYBACK

4 сезон

9 сезон

Бесстыжие 9 сезон

Все сериалы

все сериалы на PB.wtf

RePack

FAR CRY 5
  

Обмани, если любишь Сезон: 1 / Серии: 1-8 из 8 (Дмитрий Тюрин) [2014 г., мелодрама, SATRip] pb.wtf

Обмани, если любишь Сезон: 1 через торрент pb.wtf

Размер: 4.47 GB | Добавлен: 6 лет 6 мес. назад | Торрент скачан:273 раза
Скачать  

12-04-2014 23:22 Обмани, если любишь Сезон: 1 Скачать торрент  

Обмани, если любишь

  • Год выпуска: 2014
  • Страна:Россия
  • Жанр:мелодрама
  • Продолжительность: 8 х 45 минут
  • Перевод:Не требуется
  • Субтитры: Нет
  • Режиссер: Дмитрий Тюрин
  • В ролях:

    Сергей Чирков (Миша), Юлия Хлынина (Марина), Никита Смольянинов (Сергей), Игорь Миркурбанов (Павел Петрович), Юлия Рутберг (Римма Григорьевна), Марина Зудина (Елена Сергеевна), Александр Орав (Антон), Алика Смехова (Людмила), Виталия Корниенко (Марта), Татьяна Демидова (врач-психиатр), Наталья Бардо (Ирина), Марина Митрофанова (Наташа)

    • Описание:
      «Лоховедение», «Бух-учет» и «Мат-анализ» преподает обаятельный раздолбай Михаил инфантильному сыну своего шефа Сергею на уроках жизни. Михаил снова влип в историю - устроил в офисе вечеринку, которая закончилась пожаром. Последует увольнение? Совсем нет. Михаила ждет неплохая зарплата, персональный автомобиль, свободный график. А работа, которую требуется выполнить - обучить всем жизненным удовольствиям Сергея, кандидата в чемпионы-«ботаны». Михаил с энтузиазмом принимается за дело. «Госэкзаменом» должна стать будущая актриса Марина.
      Сергею нужно влюбить ее в себя. Но все идет не по учебному плану. Михаил сам влюбляется в Марину, а Сергей из стеснительного буки превращается в жесткого манипулятора с деньгами и властью. Михаил не в силах справится с Сергеем - ведь этого монстра он воспитал сам...


    • Качество: SATRip
    • Формат: AVI
    • Видео кодек: DivX 5
    • Аудио кодек:MP3
    • Видео: 720x384 (1.875), 25.000 fps, 1 599 Kbps (0.231 bit/pixel)
    • Аудио: MP3 , 48.0 KHz, 2 ch, 128 Kbps, CBR


    Код:

    Формат                           : AVI
    Формат/Информация                : Audio Video Interleave
    Размер файла                     : 593 Мбайт
    Длительность                : 47 м.
    Общий поток                      : 1737 Кбит/сек
    Программа кодирования            : VirtualDubMod 1.5.10.2 (build 2540/release)
    Библиотека кодирования           : VirtualDub build 29808/release
    Видео
    Идентификатор                    : 0
    Формат                           : MPEG-4 Visual
    Параметр BVOP формата            : Нет
    Параметр QPel формата            : Нет
    Параметр GMC формата             : Без точки перехода
    Параметр матрицы формата         : Default (H.263)
    Идентификатор кодека             : DX50
    Идентификатор кодека/Подсказка   : DivX 5
    Длительность                : 47 м.
    Битрейт                          : 1599 Кбит/сек
    Ширина                           : 720 пикс.
    Высота                           : 384 пикс.
    Соотношение сторон               : 1,875
    Частота кадров                   : 25,000 кадр/сек
    Цветовое пространство            : YUV
    Подвыборка цветности             : 4:2:0
    Битовая глубина                  : 8 бит
    Тип развёртки                    : Прогрессивная
    Метод сжатия                     : С потерями
    Бит/(Пиксели*Кадры)              : 0.231
    Размер потока                    : 546 Мбайт (92%)
    Библиотека кодирования           : DivX 6.8.5 (UTC 2009-08-20)
    Аудио
    Идентификатор                    : 1
    Формат                           : MPEG Audio
    Версия формата                   : Version 1
    Профиль формата                  : Layer 3
    Режим                            : Joint stereo
    Расширение режима                : MS Stereo
    Идентификатор кодека             : 55
    Идентификатор кодека/Подсказка   : MP3
    Длительность                : 47 м.
    Вид битрейта                     : Постоянный
    Битрейт                          : 128 Кбит/сек
    Канал(ы)                         : 2 канала(ов)
    Частота                          : 48,0 КГц
    Метод сжатия                     : С потерями
    Размер потока                    : 43,7 Мбайт (7%)
    Выравнивание                     : Соединение по промежуткам
    Длительность промежутка     : 40  мс. (1,00 видеокадр)
    Время предзагрузки промежутка    : 504 ms
    Библиотека кодирования           : LAME3.90.3ЄЄЄЄЄЄЄЄЄЄ

    Скриншоты:

    Каталог Новинок (Фильмы-трейлеры, Игры, Сериалы, Мультфильмы) pb.wtf



  • Скачать Обмани, если любишь Сезон: 1 через торрент http://i57.fastpic.ru/big/2014/0413/9f/32e5b22c0c95a17522ea42cf5bd06c9f.png Скачать фильм Обмани, если любишь Сезон: 1 через торрент бесплантно в хорошем качестве Описание:«Лоховедение», «Бух-учет» и «Мат-анализ» преподает обаятельный раздолбай Михаил инфантильному сыну своего шефа Сергею на уроках ... 8.9 10 16
    Info! Золотая раздача, скачанное не засчитывается.
    Торрент: Зарегистрирован [2014-04-12 23:22] · скачан: 273 раз
    Статус: √ проверено
    Размер: 4.47 GB
    Как cкачать? Как скачать Обмани, если любишь Сезон: 1 через торрент | qTorrent

    28-11-2019 20:33  

    Отключить всю рекламу на сайте

      Дорогой пользователь! Огромная просьба, поблагодарите релизера, оцените раздачу и оставьте свои комментарий, если Вы скачали Обмани, если любишь Сезон: 1 через торрент бесплатно! Внесите свою лепту в развитие PiratBit!
      Комментировать посты могут только пользователи прошедшие не сложную регистрацию
      Показать сообщения:    

      Обмани, если любишь Сезон: 1 через торрент
      Скачать бесплатно Обмани, если любишь Сезон: 1
      Обмани, если любишь Сезон: 1 скачать торрент
      Обмани, если любишь Сезон: 1 смотреть онлайн
      Cкачать фильм Обмани, если любишь Сезон: 1 бесплатно
      Обмани, если любишь Сезон: 1 скачать торрент в хорошем качестве
      Обмани, если любишь Сезон: 1 смотреть онлайн бесплатно в хорошем качестве


      Вы не можете начинать темы
      Вы не можете отвечать на сообщения
      Вы не можете редактировать свои сообщения
      Вы не можете удалять свои сообщения
      Вы не можете голосовать в опросах
      Вы не можете прикреплять файлы к сообщениям
      Вы можете скачивать файлы