Ссылка на приватное зеркало нашего сайта всего за 1$. Внимание количество ограничено!!!

2 сезон

iTunes

1 сезон

1

iTunes

iTunes

iTunes

1 сезон

RePack

30

ИГРА 18+

pack

ВАЖНО

!!Акция!!

Alien_RageХит недели

RePack

MK11
pack

Забери бонус

RePack

jed

!!Акция!!

Alien_Rage

RePack

fifa19

RePack

Assassins Creed: Odyssey

RePack

NEED FOR SPEED™ PAYBACK

4 сезон

9 сезон

Бесстыжие 9 сезон

Все сериалы

все сериалы на PB.wtf

RePack

FAR CRY 5
  

Муравей Антц / Antz (Эрик Дарнелл / Eric Darnell, Тим Джонсон / Tim Johnson) [1998 г., приключения, комедия, семейный, DVDRip] [Dub] pb.wtf

Муравей Антц через торрент pb.wtf

Размер: 1.46 GB | Добавлен: 6 лет 6 мес. назад | Торрент скачан:182 раза
Скачать  

13-04-2014 17:33 Муравей Антц Скачать торрент  

Муравей Антц / Antz

Год выпуска: 1998
Страна: США
Жанр: приключения, комедия, семейный
Продолжительность: 01:19:31
Перевод: Профессиональный (полное дублирование)
Субтитры: нет

Режиссёры: Эрик Дарнелл / Eric Darnell, Тим Джонсон / Tim Johnson

Персонажей озвучивали: Вуди Аллен, Шэрон Стоун, Сильвестр Сталлоне, Дженнифер Лопез, Джин Хэкмэн, Энн Бэнкрофт, Кристофер Уокен, Дэн Эйкройд, Дэнни Гловер




Описание: Маленький, но очень умный муравей-рабочий Антц убеждён, что жизнь у него не складывается. И неизвестно, чем бы всё кончилось, если бы ему не посчастливилось повстречать муравьиную принцессу Балу. По уши влюбившийся Антц, убеждает своего приятеля муравья-солдата дать ему шанс увидеть принцессу, поменявшись с ним местами на военном параде.
Невинная шалость внезапно принимает неожиданный оборот. Приняв Антца за солдата , его направляют на битву с термитами..



Качество: DVDRip
Формат: AVI
Видео кодек: XviD
Аудио кодек: AC3
Видео: 720x400, 25 fps, XviD MPEG-4 ~1841 kbps avg, 0.26 bit/pixel
Аудио #1: [Rus] 48 kHz, AC3 Dolby Digital, 3/2 (L,C,R,l,r) + LFE ch, ~384.00 kbps avg
Аудио #2: [Eng] 48 kHz, AC3 Dolby Digital, 3/2 (L,C,R,l,r) + LFE ch, ~384.00 kbps avg
General
Complete name : E:\INTERNET\Muravei_AntZ.1998.Rus.Eng.DVDRip.XviD.AC3.avi
Format : AVI
Format/Info : Audio Video Interleave
File size : 1.46 GiB
Duration : 1h 19mn
Overall bit rate : 2 625 Kbps
Writing application : VirtualDubMod 1.5.10.2 (build 2540/release)
Writing library : VirtualDubMod build 2540/release

Video
ID : 0
Format : MPEG-4 Visual
Format profile : Advanced Simple@L5
Format settings, BVOP : 2
Format settings, QPel : No
Format settings, GMC : No warppoints
Format settings, Matrix : Default (H.263)
Muxing mode : Packed bitstream
Codec ID : XVID
Codec ID/Hint : XviD
Duration : 1h 19mn
Bit rate : 1 842 Kbps
Width : 720 pixels
Height : 400 pixels
Display aspect ratio : 16:9
Frame rate : 25.000 fps
Color space : YUV
Chroma subsampling : 4:2:0
Bit depth : 8 bits
Scan type : Progressive
Compression mode : Lossy
Bits/(Pixel*Frame) : 0.256
Stream size : 1.02 GiB (70%)
Writing library : XviD 1.2.0.dev47 (UTC 2006-11-01)

Audio #1
ID : 1
Format : AC-3
Format/Info : Audio Coding 3
Mode extension : CM (complete main)
Codec ID : 2000
Duration : 1h 19mn
Bit rate mode : Constant
Bit rate : 384 Kbps
Channel(s) : 6 channels
Channel positions : Front: L C R, Side: L R, LFE
Sampling rate : 48.0 KHz
Bit depth : 16 bits
Compression mode : Lossy
Stream size : 218 MiB (15%)
Alignment : Split accross interleaves
Interleave, duration : 40 ms (1.00 video frame)
Interleave, preload duration : 500 ms

Audio #2
ID : 2
Format : AC-3
Format/Info : Audio Coding 3
Mode extension : CM (complete main)
Codec ID : 2000
Duration : 1h 19mn
Bit rate mode : Constant
Bit rate : 384 Kbps
Channel(s) : 6 channels
Channel positions : Front: L C R, Side: L R, LFE
Sampling rate : 48.0 KHz
Bit depth : 16 bits
Compression mode : Lossy
Stream size : 218 MiB (15%)
Alignment : Split accross interleaves
Interleave, duration : 40 ms (1.00 video frame)
Interleave, preload duration : 500 ms
скриншот   скриншот   скриншот   скриншот   скриншот   скриншот   скриншот  
pb.wtf



Скачать Муравей Антц через торрент http://i33.fastpic.ru/big/2014/0413/ae/6379b817120452da1e192544190009ae.jpg Скачать фильм Муравей Антц через торрент бесплантно в хорошем качестве Описание: Маленький, но очень умный муравей-рабочий Антц убеждён, что жизнь у него не складывается. И неизвестно, чем бы всё кончилось, ... 10 10 9
Торрент: Зарегистрирован [2014-04-13 17:33] · скачан: 182 раз
Статус: √ проверено
Размер: 1.46 GB
Как cкачать? Как скачать Муравей Антц через торрент | qTorrent

28-11-2019 20:33  

Отключить всю рекламу на сайте

    Дорогой пользователь! Огромная просьба, поблагодарите релизера, оцените раздачу и оставьте свои комментарий, если Вы скачали Муравей Антц через торрент бесплатно! Внесите свою лепту в развитие PiratBit!
    Комментировать посты могут только пользователи прошедшие не сложную регистрацию
    Показать сообщения:    

    Муравей Антц через торрент
    Скачать бесплатно Муравей Антц
    Муравей Антц скачать торрент
    Муравей Антц смотреть онлайн
    Cкачать фильм Муравей Антц бесплатно
    Муравей Антц скачать торрент в хорошем качестве
    Муравей Антц смотреть онлайн бесплатно в хорошем качестве


    Вы не можете начинать темы
    Вы не можете отвечать на сообщения
    Вы не можете редактировать свои сообщения
    Вы не можете удалять свои сообщения
    Вы не можете голосовать в опросах
    Вы не можете прикреплять файлы к сообщениям
    Вы можете скачивать файлы