Ссылка на приватное зеркало нашего сайта всего за 1$. Внимание количество ограничено!!!

2 сезон

iTunes

1 сезон

1

iTunes

iTunes

iTunes

1 сезон

RePack

30

ИГРА 18+

pack

ВАЖНО

!!Акция!!

Alien_RageХит недели

RePack

MK11
pack

Забери бонус

RePack

jed

!!Акция!!

Alien_Rage

RePack

fifa19

RePack

Assassins Creed: Odyssey

RePack

NEED FOR SPEED™ PAYBACK

4 сезон

9 сезон

Бесстыжие 9 сезон

Все сериалы

все сериалы на PB.wtf

RePack

FAR CRY 5
  

Скуби-Ду: Пираты на Борту / Scooby-Doo! Pirates Ahoy! (Чак Шитз) [2006 г., приключения, семейный, WEB-DLRip, Дубляж, Лицензия] pb.wtf

Скуби-Ду: Пираты на Борту через торрент pb.wtf

Размер: 747 MB | Добавлен: 6 лет 6 мес. назад | Торрент скачан:167 раз
Скачать  

14-04-2014 11:43 Скуби-Ду: Пираты на Борту Скачать торрент  

Скуби-Ду: Пираты на Борту / Scooby-Doo! Pirates Ahoy!
Год выпуска: 2006
Страна: США
Жанр: приключения, семейный
Продолжительность: 01:10:46
Перевод: Дубляж, Лицензия
Тип релиза: Лицензия
Субтитры: Нет

Режиссер: Чак Шитз
Продюссер: Джозеф Барбера, Маргарет М. Дин, Сэндер Шварц
Сценарий: Маргарет М. Дин, Джед Элинофф, Скотт Алан Томас

Премьера в мире: 10 сентября 2006

Для любой зрительской аудитории



В ролях: Дэн Кастелланета, Минди Кон, Тим Конуэй, Грей ДеЛайл, Арсенио Холл, Кэйси Касэм, Эди МакКлёрг, Кэти Нэджими, Рон Перлман, Фредди Родригес

Описание: О ужас! Скуби-Ду и его команда были до смерти напуганы, когда отправились в страшный круиз в одно из самых таинственных мест на земле — легендарный Бермудский треугольник! Друзей пугают на каждом шагу — то пришельцы, то ужасные Пираты-Призраки, которым нравится стрелять в круизные суда из пушек и топить их.

Дела становятся все хуже, когда Пираты-Призраки крадут родителей Фреда и превращают его маму в пирата. Если Скуби-Ду, Шегги и команда не разгадают эту морскую тайну, их могут сбросить за борт, и они станут следующими жертвами Треугольника!

Качество: WEB-DLRip
Формат: AVI
Видео кодек: XviD
Аудио кодек: MP3
Видео: 624x336 (1.86:1), 23.976 fps, XviD build 73 ~1337 kbps avg, 0.27 bit/pixel
Аудио#1: 48 kHz, MPEG Layer 3, 2 ch, ~128.00 kbps avg
Релиз от: Deadmauvlad
скриншот   скриншот   скриншот   скриншот   скриншот  

Общее
Полное имя : D:\Рипы выкладка [Deadmauvlad]\Рипы готовые\Scooby-Doo.Pirates.Ahoy.2006.WEB-DLRip.Deadmauvlad.avi
Формат : AVI
Формат/Информация : Audio Video Interleave
Размер файла : 747 Мбайт
Продолжительность : 1 ч. 10 м.
Общий поток : 1475 Кбит/сек
Название фильма : Scooby-Doo.Pirates.Ahoy.2006.WEB-DLRip.Deadmauvlad
Режиссёр : Deadmauvlad
Жанр : Приключения
Программа кодирования : VirtualDubMod 1.5.10.3 | www.virtualdub-fr.org || (build 2550/release)
Формат оригинала/Имя : Мультфильм
Правообладатель : Goldenshara
Примечание : Лицензия

Видео
Идентификатор : 0
Формат : MPEG-4 Visual
Профиль формата : Advanced Simple@L5
Параметр BVOP формата : 1
Параметр QPel формата : Нет
Параметр GMC формата : Без точки перехода
Параметр матрицы формата : Выборочная
Идентификатор кодека : XVID
Идентификатор кодека/Подсказка : XviD
Продолжительность : 1 ч. 10 м.
Битрейт : 1338 Кбит/сек
Ширина : 624 пикселя
Высота : 336 пикселей
Соотношение сторон : 1,85:1
Частота кадров : 23,976 кадра/сек
Цветовое пространство : YUV
Субдискретизация насыщенности : 4:2:0
Битовая глубина : 8 бит
Тип развёртки : Прогрессивная
Метод сжатия : С потерями
Бит/(Пиксели*Кадры) : 0.266
Размер потока : 677 Мбайт (91%)
Библиотека кодирования : XviD 73

Аудио
Идентификатор : 1
Формат : MPEG Audio
Версия формата : Version 1
Профиль формата : Layer 3
Идентификатор кодека : 55
Идентификатор кодека/Подсказка : MP3
Продолжительность : 1 ч. 10 м.
Вид битрейта : Постоянный
Битрейт : 128 Кбит/сек
Каналы : 2 канала
Частота : 48,0 КГц
Метод сжатия : С потерями
Размер потока : 64,8 Мбайт (9%)
Выравнивание : Соединение по промежуткам
Продолжительность промежутка : 42 мс. (1,00 видеокадр)
Время предзагрузки промежутка : 504 мс.
Библиотека кодирования : LAME3.99r
Настройки программы : -m s -V 4 -q 2 -lowpass 17 -b 128

pb.wtf



Скачать Скуби-Ду: Пираты на Борту через торрент http://pic.kartinco.top/images/6/kwk9d.jpg Скачать фильм Скуби-Ду: Пираты на Борту через торрент бесплантно в хорошем качестве Описание: О ужас! Скуби-Ду и его команда были до смерти напуганы, когда отправились в страшный круиз в одно из самых таинственных мест на ... 10 10 4
Info! Золотая раздача, скачанное не засчитывается.
Торрент: Зарегистрирован [2014-04-14 11:43] · скачан: 167 раз
Статус: √ проверено
Размер: 747 MB
Как cкачать? Как скачать Скуби-Ду: Пираты на Борту через торрент | qTorrent



Последний раз редактировалось: Se7ven95 (2014-04-15 07:04), всего редактировалось 1 раз

28-11-2019 20:33  

Отключить всю рекламу на сайте

15-04-2014 05:11 Скуби-Ду: Пираты на Борту Скачать торрент  

deadmauVlad,

  
Перезалейте постер и скриншоты на наш фотохостинг http://pic.kartinco.top/pb.wtf



    Дорогой пользователь! Огромная просьба, поблагодарите релизера, оцените раздачу и оставьте свои комментарий, если Вы скачали Скуби-Ду: Пираты на Борту через торрент бесплатно! Внесите свою лепту в развитие PiratBit!
    Комментировать посты могут только пользователи прошедшие не сложную регистрацию
    Показать сообщения:    

    Скуби-Ду: Пираты на Борту через торрент
    Скачать бесплатно Скуби-Ду: Пираты на Борту
    Скуби-Ду: Пираты на Борту скачать торрент
    Скуби-Ду: Пираты на Борту смотреть онлайн
    Cкачать фильм Скуби-Ду: Пираты на Борту бесплатно
    Скуби-Ду: Пираты на Борту скачать торрент в хорошем качестве
    Скуби-Ду: Пираты на Борту смотреть онлайн бесплатно в хорошем качестве


    Вы не можете начинать темы
    Вы не можете отвечать на сообщения
    Вы не можете редактировать свои сообщения
    Вы не можете удалять свои сообщения
    Вы не можете голосовать в опросах
    Вы не можете прикреплять файлы к сообщениям
    Вы можете скачивать файлы