Ссылка на приватное зеркало нашего сайта всего за 1$. Внимание количество ограничено!!!

2 сезон

iTunes

1 сезон

1

2 сезон

2 сезон

iTunes

1 сезон

RePack

30

Ultimate

ВАЖНО

ИГРА 18+

pack

RePack

MK11
pack

Забери бонус

RePack

jed

!!Акция!!

Alien_Rage

RePack

fifa19

RePack

Assassins Creed: Odyssey

RePack

NEED FOR SPEED™ PAYBACK

4 сезон

9 сезон

Бесстыжие 9 сезон

Все сериалы

все сериалы на PB.wtf

RePack

FAR CRY 5
  

Блудливая Калифорния / Californication / Сезон: 7 / Серии: 1-2 (12) (Том Капинос / Tom Kapinos) [2014 г., Комедия, драма, HDTVRip 720p] MVO (Jaskier) + Original pb.wtf

Блудливая Калифорния через торрент pb.wtf

Размер: 1.37 GB | Добавлен: 6 лет 7 мес. назад | Торрент скачан:69 раз
Скачать  

14-04-2014 20:27 Блудливая Калифорния Скачать торрент  

Блудливая Калифорния / Californication
«Hank Moody... No man is more committed to a midlife crisis»
Год выпуска: 2014
Страна: США
Жанр: драма, комедия
Продолжительность: 00:27:13
Перевод:
|Профессиональный (многоголосый, закадровый) Jaskier, |
Субтитры: Отсутствуют

Режиссер: Дэвид Фон Энкен / David Von Ancken, Стивен Хопкинс / Stephen Hopkins, Кен Уиттингэм / Ken Whittingham
В ролях: Дэвид Духовны (Hank Moody), Наташа МакЭлхоун (Karen), Мадлен Мартин (Becca Moody), Эван Хэндлер (Charlie Runkle), Памела Адлон (Marcy Runkle), Мадлен Зима (Mia Lewis), Стивен Тоболовски (Stu Beggs), Каллум Кит Ренни (Lew Ashby), Джейсон Бех (Richard Bates), Рэйчел Майнер (Dani), Карла Галло (Daisy), Кэтлин Тёрнер (Sue Collini)
Описание:
Заключительный седьмой сезон сериала «Блудливая Калифорния» расскажет, чем же завершатся жизненные перипетии всех главных героев. Хэнк Муди (Дэвид Духовны) назначен главным сценаристом на съемочной площадке нового сериала, сюжет которого адаптирован по фильму Хэнка, не допущенного в кинопрокат. Майкл Империоли исполнил второстепенную роль продюсера Рика Рата. Рик в прошлом работал полицейским, но решил пойти на риск и переехал в Нью-Йорк, чтобы начать карьеру писателя. Рик получает должность продюсера на телевидении и прилично зарабатывает. Именно Рику пришла идея пригласить Хэнка Муди в качестве участника на популярное телешоу.

Рейтинг

Качество: HDTVRip 720p
Формат: MKV
Видео кодек: AVC
Аудио кодек: AC3
Видео: AVC, 1280x720 (16:9), ~2600 Kbps, 23.976 fps, 0.122 bit/pixel
Аудио №1: AC3 / 2.0 / 48 kHz / 192 kbps / 16 bit
Аудио №2: AC3 / 5.1 / 48 kHz / 384 kbps / 16 bit

Оформление: Messa-fan
Перевод: Юлия Мейер
Роли озвучивали: Сергей Пономарёв, Денис Строев, Данила Поперечный, Вячеслав Козлов, Таисия Тришина и Рина Гришина.
Внимание! Присутствует нецензурная лексика и сцены с обнажённой натурой!

Код:

General
Unique ID                      : 198942043792678528004855497825431916838 (0x95AAD80C0B8314F29FB60EF2048D1126)
Complete name                  : X:\HD\Californication. 7 season (HDTVRip l 720p l GoodPeople-Jaskier)\Californication.S07E01.720p.HDTV.x264-GoodPeople-Jaskier.mkv
Format                         : Matroska
Format version                 : Version 1
File size                      : 655 MiB
Duration                       : 28mn 26s
Overall bit rate               : 3 218 Kbps
Encoded date                   : UTC 2014-04-14 19:21:23
Writing application            : mkvmerge v2.3.0 ('Freak U') built on Sep  8 2008 18:32:16
Writing library                : libebml v0.7.7 + libmatroska v0.8.1

Video
ID                             : 1
Format                         : AVC
Format/Info                    : Advanced Video Codec
Format profile                 : High@L4.1
Format settings, CABAC         : Yes
Format settings, ReFrames      : 5 frames
Codec ID                       : V_MPEG4/ISO/AVC
Duration                       : 28mn 26s
Bit rate                       : 2 578 Kbps
Width                          : 1 280 pixels
Height                         : 720 pixels
Display aspect ratio           : 16:9
Frame rate                     : 23.976 fps
Color space                    : YUV
Chroma subsampling             : 4:2:0
Bit depth                      : 8 bits
Scan type                      : Progressive
Bits/(Pixel*Frame)             : 0.117
Stream size                    : 524 MiB (80%)
Writing library                : x264 core 142 r2409 d6b4e63
Encoding settings              : cabac=1 / ref=5 / deblock=1:-2:-2 / analyse=0x3:0x113 / me=umh / subme=8 / psy=1 / psy_rd=1.05:0.00 / mixed_ref=1 / me_range=16 / chroma_me=1 / trellis=1 / 8x8dct=1 / cqm=0 / deadzone=21,11 / fast_pskip=1 / chroma_qp_offset=-2 / threads=18 / lookahead_threads=3 / sliced_threads=0 / nr=0 / decimate=1 / interlaced=0 / bluray_compat=0 / constrained_intra=0 / bframes=3 / b_pyramid=2 / b_adapt=2 / b_bias=0 / direct=3 / weightb=1 / open_gop=0 / weightp=2 / keyint=250 / keyint_min=23 / scenecut=40 / intra_refresh=0 / rc_lookahead=50 / rc=crf / mbtree=1 / crf=18.0 / qcomp=0.60 / qpmin=0 / qpmax=69 / qpstep=4 / ip_ratio=1.40 / aq=1:0.65
Language                       : English
Default                        : Yes
Forced                         : No

Audio #1
ID                             : 2
Format                         : AC-3
Format/Info                    : Audio Coding 3
Mode extension                 : CM (complete main)
Format settings, Endianness    : Big
Codec ID                       : A_AC3
Duration                       : 28mn 26s
Bit rate mode                  : Constant
Bit rate                       : 192 Kbps
Channel(s)                     : 2 channels
Channel positions              : Front: L R
Sampling rate                  : 48.0 KHz
Bit depth                      : 16 bits
Compression mode               : Lossy
Stream size                    : 39.1 MiB (6%)
Language                       : Russian
Default                        : Yes
Forced                         : No

Audio #2
ID                             : 3
Format                         : AC-3
Format/Info                    : Audio Coding 3
Mode extension                 : CM (complete main)
Format settings, Endianness    : Big
Codec ID                       : A_AC3
Duration                       : 28mn 26s
Bit rate mode                  : Constant
Bit rate                       : 384 Kbps
Channel(s)                     : 6 channels
Channel positions              : Front: L C R, Side: L R, LFE
Sampling rate                  : 48.0 KHz
Bit depth                      : 16 bits
Compression mode               : Lossy
Stream size                    : 78.1 MiB (12%)
Language                       : English
Default                        : No
Forced                         : No


  • Прообразом Хэнка Муди является писатель Чарльз Буковски. В девятой серии первого сезона Карэн упоминает Буковски как одного из своих любимых писателей.
  • Оригинальное название сериала образовано слиянием слов: Californication = California + Fornication (англ. Fornication - внебрачная связь, блуд).
  • Названия книг Хэнка Муди: «South of Heaven», «Seasons in the Abyss» и «God Hates Us All» - соответствуют названиям альбомов американской трэш-металл группы Slayer.
  • В 7-й серии 4 сезона в сцене, где Марси и Ранкл ожидают приема в Showtime, можно увидеть постеры других сериалов от Showtime.
  • В 10-й серии 2 сезона в сцене, где Хэнк и Карэн впервые расстаются будучи молодыми, а потом решают вместе пойти на церемонию прощанья с Куртом Кобейном, на стене дома у перекрёстка можно заметить постер фильма «Форрест Гамп». Курт Кобейн скончался в начале апреля 1994 года, а премьера фильма в США состоялась в конце июня того же года.


  • Внимание! Раздача ведётся путём добавления новых серий; при каждом добавлении создётся новый торрент. Чтобы начать докачку новой серии, пользователям необходимо сделать следующее:
    (1) остановить скачивание,
    (2) удалить старый торрент у себя из клиента (старые серии удалять не надо),
    (3) скачать новый торрент и запустить его у себя в клиенте вместо старого, при этом указать клиенту путь в старую папку куда и должно происходить скачивание новых серий.
    Ваш клиент при этом должен произвести хеширование (проверку) старой папки (если не производит сам - помогите ему сделать это), и будет докачивать только те серии которых у вас ещё нет. Старые серии при этом не удаляются, а продолжают раздаваться!
    Eсли вы уже удалили старые серии, то предотвратить повторную закачку старых серий можно, отжав галочку в соответсвующих местах при запуске нового торрента. По возможности, желательно не удалять старые серии как можно дольше чтобы релизёр не столько продолжал раздавать старые серии, а смог сконцентрироваться на новых.

    Добавлена 2 серия!

    pb.wtf



    Скачать Блудливая Калифорния через торрент http://i33.fastpic.ru/big/2014/0413/03/b141c175d744df3e5deadc69c58e0203.jpg Скачать фильм Блудливая Калифорния через торрент бесплантно в хорошем качестве Описание: Заключительный седьмой сезон сериала «Блудливая Калифорния» расскажет, чем же завершатся жизненные перипетии всех главных ... 10 10 13
    Торрент: Зарегистрирован [2014-04-17 16:41] · скачан: 69 раз
    Статус: √ проверено
    Размер: 1.37 GB
    Как cкачать? Как скачать Блудливая Калифорния через торрент | qTorrent



    Последний раз редактировалось: Messa-fan (2014-04-17 16:41), всего редактировалось 1 раз

    28-11-2019 20:33  

    Отключить всю рекламу на сайте

    14-04-2014 21:17 Блудливая Калифорния Скачать торрент  

    Да достали вы со своим MKV форматом,есть ави формат?Плизззpb.wtf



    15-04-2014 06:11 Блудливая Калифорния Скачать торрент  

    Homofox писал(а):

    Да достали вы со своим MKV форматом,есть ави формат?Плиззз

    +1pb.wtf



    15-04-2014 06:28 Блудливая Калифорния Скачать торрент  

    чем тебя мкв не устраивает, качество лучше чем ави при тех же размерах. странно, слышал что вроде завершили снимать, рад что это не так.pb.wtf



    15-04-2014 11:13 Блудливая Калифорния Скачать торрент  

    AVI хуже чем MKV.
    AVI в мусор 8)pb.wtf



    17-04-2014 16:42 Блудливая Калифорния Скачать торрент  


    Добавлена 2 серия!

    pb.wtf



      Дорогой пользователь! Огромная просьба, поблагодарите релизера, оцените раздачу и оставьте свои комментарий, если Вы скачали Блудливая Калифорния через торрент бесплатно! Внесите свою лепту в развитие PiratBit!
      Комментировать посты могут только пользователи прошедшие не сложную регистрацию
      Показать сообщения:    

      Блудливая Калифорния через торрент
      Скачать бесплатно Блудливая Калифорния
      Блудливая Калифорния скачать торрент
      Блудливая Калифорния смотреть онлайн
      Cкачать фильм Блудливая Калифорния бесплатно
      Блудливая Калифорния скачать торрент в хорошем качестве
      Блудливая Калифорния смотреть онлайн бесплатно в хорошем качестве


      Вы не можете начинать темы
      Вы не можете отвечать на сообщения
      Вы не можете редактировать свои сообщения
      Вы не можете удалять свои сообщения
      Вы не можете голосовать в опросах
      Вы не можете прикреплять файлы к сообщениям
      Вы можете скачивать файлы