Ссылка на приватное зеркало всего за 1$. Внимание количество ограничено!!!

OK

1+1

iTunes

мы

OK

1

WEB-DLRip

Джокер

Пифагор

Ведьмак / The Witcher сериал

iTunes

ПШазам

ОК

Оно 2

iTunes

30
pack

Вам бонус

ВАЖНО

!!Акция!!

Alien_RageХит недели

RePack

Resident Evil 21

ИГРА 18+

pack

RePack

jed

RePack

fifa19

RePack

Assassins Creed: Odyssey

RePack

NEED FOR SPEED™ PAYBACK

4 сезон

9 сезон

Бесстыжие 9 сезон

Все сериалы

все сериалы на PB.wtf

RePack

FAR CRY 5
  

Я больше не боюсь / сезон 1 / серии 1-10 из 10 (Илья Максимов) [ 2014 , Россия , мелодрама , SATRip ] pb.wtf

Я больше не боюсь через торрент pb.wtf

Размер: 5.87 GB | Добавлен: 5 лет 9 мес. назад | Торрент скачан:229 раз
Скачать  

15-04-2014 02:52 Я больше не боюсь Скачать торрент  

Я больше не боюсь
Год выпуска: 2014
Страна: Россия
Жанр: мелодрама
Продолжительность: ~00:42:49 (Серия)
Перевод: Не требуется
Субтитры: Нет
Режиссер: Илья Максимов
Сценарий: Елена Медведева, Марина Кошкина, Вера Федорова, Андрей Щербинин, Максим Стишов
Продюсер: Екатерина Ефанова, Максим Стишов, Дмитрий Фикс, Михаил Курбатов, Артем Чуба
Оператор: Григорий Рудаков
Композитор: Илья Духовный
В ролях:
Анастасия Заворотнюк, Алексей Кравченко, Раиса Рязанова, Денис Матросов, Вера Сотникова, Сергей Марин, Дэник Неверов, Анастасия Матвеева, Алина Бабак (девочка из детского дома)
Описание:
Когда твой дом - полная чаша, тебя окружают любимые дети и любящий муж, любой скажет, что ты - счастливая женщина.
Вера двадцать лет прожила, не ведая больших бед и тяжелых забот. Заботливый и работящий муж обеспечивал достаток, сама же Вера полностью посвятила себя дому и воспитанию детей. Она искренне верила, что так будет всегда. Но ни одна, даже самая крепкая дверь не спасет, когда в нее стучится сама судьба...
Весь мир Веры рушится буквально за один день. Сначала приходит страшное известие о том, что ее муж погиб во время разбойного нападения на его автомобиль. Но не успевает Вера даже осознать факт гибели мужа, как на нее со всех сторон наседают какие-то люди, требующие огромных денег. Вера, никогда не вникавшая в дела мужа, с ужасом узнает, что он давно не тот успешный предприниматель, каким считала его Вера. Он должен всем вокруг. И даже дом, в котором они так счастливо жили, принадлежит банку. В довершение ко всему на пороге квартиры появляется незнакомая женщина, которая заявляет, что она - законная супруга погибшего...
Рейтинг
kinopoisk.ru: 7.478 (74)
Качество: SATRip
Формат: AVI
Видео кодек: DivX 5
Аудио кодек: MP3
Видео: 1801 Кбит/сек, 720*400 (16:9), в 25,000 кадров/сек, MPEG-4 Visual (DivX 5)
Аудио: 192 Кбит/сек, 48,0 КГц, 2 канала, MPEG Audio (MP3 )
Общее
Кол-во : 279
Кол-во потоков такого типа : 1
Тип потока : General
Тип потока : Общее
Идентификатор типа потока : 0
Inform : AVI: 612 Мбайт, 42 м.
Кол-во видеопотоков : 1
Кол-во аудиопотоков : 1
Video_Format_List : MPEG-4 Visual
Video_Format_WithHint_List : MPEG-4 Visual (DivX 5)
Видеокодеки : DivX 5
Audio_Format_List : MPEG Audio
Audio_Format_WithHint_List : MPEG Audio (MP3 )
Аудиокодеки : MPEG-1 Audio layer 3
Полное имя : D:\Фильмы\Я больше не боюсь\Я больше не боюсь. Серия 01 (2014).avi
Имя папки : D:\Фильмы\Я больше не боюсь
Имя файла : Я больше не боюсь. Серия 01 (2014)
Расширение : avi
Формат : AVI
Формат : AVI
Формат/Информация : Audio Video Interleave
Формат/Используется в : avi
Коммерческое название : AVI
Интернет-тип носителя : video/vnd.avi
Чередующаяся : Yes
Кодек : AVI
Кодек : AVI
Кодек/Информация : Audio Video Interleave
Кодек/Используется в : avi
Размер файла : 641258286
Размер файла : 612 Мбайт
Размер файла : 612 Мбайт
Размер файла : 612 Мбайт
Размер файла : 612 Мбайт
Размер файла : 611,6 Мбайт
Продолжительность : 2561680
Продолжительность : 42 м.
Продолжительность : 42 м. 41 с. 680 мс.
Продолжительность : 42 м.
Продолжительность : 00:42:41.680
Общий поток : 2002618
Общий поток : 2003 Кбит/сек
Размер потока : 3103563
Размер потока : 2,96 Мбайт (0%)
Размер потока : 3 Мбайт
Размер потока : 3,0 Мбайт
Размер потока : 2,96 Мбайт
Размер потока : 2,960 Мбайт
Размер потока : 2,96 Мбайт (0%)
Пропорции потока : 0.00484
Дата файла : UTC 2014-04-15 02:23:32.498
Дата файла (местная) : 2014-04-15 09:23:32.498
Дата изменения файла : UTC 2014-04-15 01:43:21.486
Дата изменения файла (местная) : 2014-04-15 08:43:21.486
Библиотека кодирования : VirtualDub build 35491/release
Библиотека кодирования : VirtualDub build 35491/release

Видео
Кол-во : 248
Кол-во потоков такого типа : 1
Тип потока : Video
Тип потока : Видео
Идентификатор типа потока : 0
Inform : 1801 Кбит/сек, 720*400 (16:9), в 25,000 кадров/сек, MPEG-4 Visual (DivX 5) (Сжатый битовый поток) (BVOP1)
Идентификатор : 0
Идентификатор : 0
Формат : MPEG-4 Visual
Коммерческое название : MPEG-4 Visual
Настройки формата : BVOP1
Параметр BVOP формата : 1
Параметр BVOP формата : 1
Параметр QPel формата : No
Параметр QPel формата : Нет
Параметр GMC формата : 0
Параметр GMC формата : Без точки перехода
Параметр матрицы формата : Default (H.263)
Параметр матрицы формата : Default (H.263)
Интернет-тип носителя : video/MP4V-ES
Режим смешивания : Сжатый битовый поток
Идентификатор кодека : DX50
Идентификатор кодека/Подсказка : DivX 5
Идентификатор кодека/Ссылка : http://mediaarea.net/DX50
Кодек : DX50
Кодек : DivX 5
Кодек/Семейство : MPEG-4V
Кодек/Ссылка : http://www.divx.com
Кодек/CC : DX50
Настройки кодека : BVOP / Packed Bitstream
Параметр пакетного потока данных кодека : Yes
Параметр BVOP кодека : Yes
Параметр QPel кодека : No
Параметр GMC кодека : 0
Параметр GMC кодека : Без точки перехода
Параметр матрицы кодека : Default (H.263)
Продолжительность : 2561680
Продолжительность : 42 м.
Продолжительность : 42 м. 41 с. 680 мс.
Продолжительность : 42 м.
Продолжительность : 00:42:41.680
Битрейт : 1800927
Битрейт : 1801 Кбит/сек
Ширина : 720
Ширина : 720 пикселей
Высота : 400
Высота : 400 пикселей
Пропорции пикселя : 1.000
Соотношение сторон : 1.800
Соотношение сторон : 16:9
Частота кадров : 25.000
Частота кадров : 25,000 кадров/сек
Счётчик кадров : 64042
Разрешение : 8
Разрешение : 8 бит
Колориметрия : 4:2:0
Цветовое пространство : YUV
Субдискретизация насыщенности : 4:2:0
Битовая глубина : 8
Битовая глубина : 8 бит
Тип развёртки : Progressive
Тип развёртки : Прогрессивная
Переплетение : PPF
Переплетение : Прогрессивная
Метод сжатия : Lossy
Метод сжатия : С потерями
Бит/(Пиксели*Кадры) : 0.250
Задержка : 0
Задержка : 00:00:00.000
Размер потока : 576674886
Размер потока : 550 Мбайт (90%)
Размер потока : 550 Мбайт
Размер потока : 550 Мбайт
Размер потока : 550 Мбайт
Размер потока : 550,0 Мбайт
Размер потока : 550 Мбайт (90%)
Пропорции потока : 0.89929
Библиотека кодирования : DivX503b2816p
Библиотека кодирования : DivX 6.8.5 (UTC 2009-08-20)
Библиотека кодирования/Имя : DivX
Библиотека кодирования/Version : 6.8.5
Библиотека кодирования/Дата : UTC 2009-08-20

Аудио
Кол-во : 217
Кол-во потоков такого типа : 1
Тип потока : Audio
Тип потока : Аудио
Идентификатор типа потока : 0
Inform : 192 Кбит/сек, 48,0 КГц, 2 канала, MPEG Audio (MP3 ) (Version 1) (Layer 3) (Joint stereo / MS Stereo)
Идентификатор : 1
Идентификатор : 1
Формат : MPEG Audio
Коммерческое название : MPEG Audio
Версия формата : Version 1
Профиль формата : Layer 3
Настройки формата : Joint stereo / MS Stereo
Режим : Joint stereo
Расширение режима : MS Stereo
Интернет-тип носителя : audio/mpeg
Идентификатор кодека : 55
Идентификатор кодека/Подсказка : MP3
Идентификатор кодека/Ссылка : http://www.iis.fraunhofer.de/amm/index.html
Кодек : MPA1L3
Кодек : MPEG-1 Audio layer 3
Кодек/Семейство : MPEG-1
Кодек/Информация : MPEG-1 or 2 layer 3
Кодек/Ссылка : http://www.iis.fraunhofer.de/amm/index.html
Кодек/CC : 55
Профиль кодека : Joint stereo
Продолжительность : 2561660
Продолжительность : 42 м.
Продолжительность : 42 м. 41 с. 660 мс.
Продолжительность : 42 м.
Продолжительность : 00:42:41.660
Вид битрейта : CBR
Вид битрейта : Постоянный
Битрейт : 192000
Битрейт : 192 Кбит/сек
Каналы : 2
Каналы : 2 канала
Частота : 48000
Частота : 48,0 КГц
Количество образцов : 122959680
Метод сжатия : Lossy
Метод сжатия : С потерями
Задержка : 0
Задержка : 00:00:00.000
Задержка в оригинале : Stream
Задержка в оригинале : 'Сырой' поток
Задержка видео : 0
Задержка видео : 0
Размер потока : 61479837
Размер потока : 58,6 Мбайт (10%)
Размер потока : 59 Мбайт
Размер потока : 59 Мбайт
Размер потока : 58,6 Мбайт
Размер потока : 58,63 Мбайт
Размер потока : 58,6 Мбайт (10%)
Пропорции потока : 0.09587
Выравнивание : Split
Выравнивание : Разделение по промежуткам
Продолжительность промежутка : 1.00
Продолжительность промежутка : 40
Продолжительность промежутка : 40 мс. (1,00 видеокадр)
Время предзагрузки промежутка : 500
Время предзагрузки промежутка : 500 мс.

Общее
Полное имя : D:\Фильмы\Я больше не боюсь\Я больше не боюсь. Серия 02 (2014).avi
Формат : AVI
Формат/Информация : Audio Video Interleave
Размер файла : 588 Мбайт
Продолжительность : 41 м.
Общий поток : 2002 Кбит/сек
Библиотека кодирования : VirtualDub build 35491/release

Видео
Идентификатор : 0
Формат : MPEG-4 Visual
Параметр BVOP формата : 1
Параметр QPel формата : Нет
Параметр GMC формата : Без точки перехода
Параметр матрицы формата : Default (H.263)
Режим смешивания : Сжатый битовый поток
Идентификатор кодека : DX50
Идентификатор кодека/Подсказка : DivX 5
Продолжительность : 41 м.
Битрейт : 1800 Кбит/сек
Ширина : 720 пикселей
Высота : 400 пикселей
Соотношение сторон : 16:9
Частота кадров : 25,000 кадров/сек
Цветовое пространство : YUV
Субдискретизация насыщенности : 4:2:0
Битовая глубина : 8 бит
Тип развёртки : Прогрессивная
Метод сжатия : С потерями
Бит/(Пиксели*Кадры) : 0.250
Размер потока : 529 Мбайт (90%)
Библиотека кодирования : DivX 6.8.5 (UTC 2009-08-20)

Аудио
Идентификатор : 1
Формат : MPEG Audio
Версия формата : Version 1
Профиль формата : Layer 3
Режим : Joint stereo
Расширение режима : MS Stereo
Идентификатор кодека : 55
Идентификатор кодека/Подсказка : MP3
Продолжительность : 41 м.
Вид битрейта : Постоянный
Битрейт : 192 Кбит/сек
Каналы : 2 канала
Частота : 48,0 КГц
Метод сжатия : С потерями
Размер потока : 56,4 Мбайт (10%)
Выравнивание : Разделение по промежуткам
Продолжительность промежутка : 40 мс. (1,00 видеокадр)
Время предзагрузки промежутка : 500 мс.

Общее
Полное имя : D:\Фильмы\Я больше не боюсь\Я больше не боюсь. Серия 03 (2014).avi
Формат : AVI
Формат/Информация : Audio Video Interleave
Размер файла : 587 Мбайт
Продолжительность : 40 м.
Общий поток : 2003 Кбит/сек
Библиотека кодирования : VirtualDub build 35491/release

Видео
Идентификатор : 0
Формат : MPEG-4 Visual
Параметр BVOP формата : 1
Параметр QPel формата : Нет
Параметр GMC формата : Без точки перехода
Параметр матрицы формата : Default (H.263)
Режим смешивания : Сжатый битовый поток
Идентификатор кодека : DX50
Идентификатор кодека/Подсказка : DivX 5
Продолжительность : 40 м.
Битрейт : 1801 Кбит/сек
Ширина : 720 пикселей
Высота : 400 пикселей
Соотношение сторон : 16:9
Частота кадров : 25,000 кадров/сек
Цветовое пространство : YUV
Субдискретизация насыщенности : 4:2:0
Битовая глубина : 8 бит
Тип развёртки : Прогрессивная
Метод сжатия : С потерями
Бит/(Пиксели*Кадры) : 0.250
Размер потока : 528 Мбайт (90%)
Библиотека кодирования : DivX 6.8.5 (UTC 2009-08-20)

Аудио
Идентификатор : 1
Формат : MPEG Audio
Версия формата : Version 1
Профиль формата : Layer 3
Режим : Joint stereo
Расширение режима : MS Stereo
Идентификатор кодека : 55
Идентификатор кодека/Подсказка : MP3
Продолжительность : 40 м.
Вид битрейта : Постоянный
Битрейт : 192 Кбит/сек
Каналы : 2 канала
Частота : 48,0 КГц
Метод сжатия : С потерями
Размер потока : 56,3 Мбайт (10%)
Выравнивание : Разделение по промежуткам
Продолжительность промежутка : 40 мс. (1,00 видеокадр)
Время предзагрузки промежутка : 500 мс.

Общее
Полное имя : D:\Фильмы\Я больше не боюсь\Я больше не боюсь. Серия 04 (2014).avi
Формат : AVI
Формат/Информация : Audio Video Interleave
Размер файла : 608 Мбайт
Продолжительность : 42 м.
Общий поток : 1999 Кбит/сек
Библиотека кодирования : VirtualDub build 35491/release

Видео
Идентификатор : 0
Формат : MPEG-4 Visual
Параметр BVOP формата : 1
Параметр QPel формата : Нет
Параметр GMC формата : Без точки перехода
Параметр матрицы формата : Default (H.263)
Режим смешивания : Сжатый битовый поток
Идентификатор кодека : DX50
Идентификатор кодека/Подсказка : DivX 5
Продолжительность : 42 м.
Битрейт : 1798 Кбит/сек
Ширина : 720 пикселей
Высота : 400 пикселей
Соотношение сторон : 16:9
Частота кадров : 25,000 кадров/сек
Цветовое пространство : YUV
Субдискретизация насыщенности : 4:2:0
Битовая глубина : 8 бит
Тип развёртки : Прогрессивная
Метод сжатия : С потерями
Бит/(Пиксели*Кадры) : 0.250
Размер потока : 547 Мбайт (90%)
Библиотека кодирования : DivX 6.8.5 (UTC 2009-08-20)

Аудио
Идентификатор : 1
Формат : MPEG Audio
Версия формата : Version 1
Профиль формата : Layer 3
Режим : Joint stereo
Расширение режима : MS Stereo
Идентификатор кодека : 55
Идентификатор кодека/Подсказка : MP3
Продолжительность : 42 м.
Вид битрейта : Постоянный
Битрейт : 192 Кбит/сек
Каналы : 2 канала
Частота : 48,0 КГц
Метод сжатия : С потерями
Размер потока : 58,4 Мбайт (10%)
Выравнивание : Разделение по промежуткам
Продолжительность промежутка : 40 мс. (1,00 видеокадр)
Время предзагрузки промежутка : 500 мс.


скриншот   скриншот   скриншот   скриншот   скриншот   скриншот   скриншот   скриншот   скриншот   скриншот  

pb.wtf



Скачать Я больше не боюсь через торрент http://pic.kartinco.top/images/6/hu6or.jpg Скачать фильм Я больше не боюсь через торрент бесплантно в хорошем качестве Описание:Когда твой дом - полная чаша, тебя окружают любимые дети и любящий муж, любой скажет, что ты - счастливая женщина.Вера двадцать ... 9.4 10 13
Info! Золотая раздача, скачанное не засчитывается.
Торрент: Зарегистрирован [2014-04-15 02:52] · скачан: 229 раз
Статус: √ проверено
Размер: 5.87 GB
Как cкачать? Как скачать Я больше не боюсь через торрент | qTorrent

28-11-2019 20:33  

Отключить всю рекламу на сайте

    Дорогой пользователь! Огромная просьба, поблагодарите релизера, оцените раздачу и оставьте свои комментарий, если Вы скачали Я больше не боюсь через торрент бесплатно! Внесите свою лепту в развитие PiratBit!
    Комментировать посты могут только пользователи прошедшие не сложную регистрацию
    Показать сообщения:    

    Я больше не боюсь через торрент
    Скачать бесплатно Я больше не боюсь
    Я больше не боюсь скачать торрент
    Я больше не боюсь смотреть онлайн
    Cкачать фильм Я больше не боюсь бесплатно
    Я больше не боюсь скачать торрент в хорошем качестве
    Я больше не боюсь смотреть онлайн бесплатно в хорошем качестве


    Вы не можете начинать темы
    Вы не можете отвечать на сообщения
    Вы не можете редактировать свои сообщения
    Вы не можете удалять свои сообщения
    Вы не можете голосовать в опросах
    Вы не можете прикреплять файлы к сообщениям
    Вы можете скачивать файлы