2 сезон

iTunes

MVO

1

2 сезон

iTunes

iTunes

1 сезон

RePack

30

Новинка

ВАЖНО

ИГРА 18+

pack

RePack

MK11
pack

Легкие деньги

RePack

jed

RePack

fifa19

RePack

RDR2

RePack

NEED FOR SPEED™ PAYBACK

4 сезон

9 сезон

Бесстыжие 9 сезон

Все сериалы

все сериалы на PB.wtf

RePack

FAR CRY 5

Anonymous, доброй ночи, мы не успеваем собрать деньги на оплату серверов за декабрь и январь, помогите нам пожалуйста в это трудное время. В качестве благодарности мы отключим Вам всю рекламу на сайте (укажите свой ник в строку Ваше имя)!

×
  
Magnet ссылка

Далласский клуб покупателей / Dallas Buyers Club (Жан-Марк Валле) [2013 г., Драма, биография, HDRip, Профессиональный многоголосый |Baibako|] pb.wtf

Далласский клуб покупателей через торрент pb.wtf

Размер: 1.46 GB | Добавлен: 6 лет 11 мес. назад | Торрент скачан:1158 раз
Скачать  

29-01-2014 15:19 Далласский клуб покупателей Скачать торрент  

Далласский клуб покупателей / Dallas Buyers Club

Год выпуска: 2013
Страна: США
Выпущено: Truth Entertainment (II)
Жанр: Драма, биография,
Продолжительность: 01:56:57
Перевод: Профессиональный многоголосый |Baibako|

Режиссер: Жан-Марк Валле
Продюссер: Робби Бреннер, Дэвид Л. Бушнелл, Николя Картье
Сценарий: Крэйг Бортен, Мелисса Уоллэк
Бюджет: $5 500 000
Премьера в мире: 7 сентября 2013

IMDB 8.10 (24 863)


В ролях: Мэттью МакКонахи, Дженнифер Гарнер, Джаред Лето, Стив Зан, Дэнис О’Хэйр, Кевин О. Ранкин, Даллас Робертс, Стеффи Гроут, Джанин Хилл, Гриффин Данн

Описание: Реальная история Рона Вудруфа, техасского электрика, у которого в 1986 году обнаружили СПИД. Тогда врачи отвели ему всего полгода, но он не пожелал смириться со смертным приговором и сумел продлить свою жизнь, принимая нетрадиционные лекарства, а затем наладил подпольный и прибыльный бизнес по продаже их другим больным.

Сэмпл

Качество: HDRip
Формат: AVI
Видео кодек: XviD
Аудио кодек: AC3
Видео: MPEG4, XviD, 720x304 (2.35:1), 23.976 fps, 1 331 Kbps (0.254 bit/pixel)
Аудио: 48 kHz, AC3 Dolby Digital, 3/2 (L,C,R,l,r) + LFE ch, ~448 kbps
General
Complete name : /home/sb753/files/Dallasskiy.klub.pokupateley.2013.P.HDRip.1400MB.avi
Format : AVI
Format/Info : Audio Video Interleave
File size : 1.46 GiB
Duration : 1h 56mn
Overall bit rate : 1 788 Kbps
Writing application : VirtualDubMod 1.5.10.2 (build 2540/release)
Writing library : VirtualDubMod build 2540/release

Video
ID : 0
Format : MPEG-4 Visual
Format profile : Advanced Simple@L5
Format settings, BVOP : 2
Format settings, QPel : No
Format settings, GMC : No warppoints
Format settings, Matrix : Custom
Codec ID : XVID
Codec ID/Hint : XviD
Duration : 1h 56mn
Bit rate : 1 331 Kbps
Width : 720 pixels
Height : 304 pixels
Display aspect ratio : 2.35:1
Frame rate : 23.976 fps
Color space : YUV
Chroma subsampling : 4:2:0
Bit depth : 8 bits
Scan type : Progressive
Compression mode : Lossy
Bits/(Pixel*Frame) : 0.254
Stream size : 1.09 GiB (74%)
Writing library : XviD 1.2.1 (UTC 2008-12-04)

Audio
ID : 1
Format : AC-3
Format/Info : Audio Coding 3
Mode extension : CM (complete main)
Format settings, Endianness : Big
Codec ID : 2000
Duration : 1h 56mn
Bit rate mode : Constant
Bit rate : 448 Kbps
Channel(s) : 6 channels
Channel positions : Front: L C R, Side: L R, LFE
Sampling rate : 48.0 KHz
Bit depth : 16 bits
Compression mode : Lossy
Stream size : 375 MiB (25%)
Alignment : Split accross interleaves
Interleave, duration : 42 ms (1.00 video frame)
Interleave, preload duration : 500 ms
pb.wtf



Скачать Далласский клуб покупателей через торрент http://pic.kartinco.top/images/6/fbts2.jpg Скачать фильм Далласский клуб покупателей через торрент бесплантно в хорошем качестве Описание: Реальная история Рона Вудруфа, техасского электрика, у которого в 1986 году обнаружили СПИД. Тогда врачи отвели ему всего ... 9.7 10 26
Info! Золотая раздача, скачанное не засчитывается.
Торрент: Зарегистрирован [2014-01-29 15:19] · скачан: 1 158 раз
Статус: √ проверено
Размер: 1.46 GB
Как cкачать? Как скачать Далласский клуб покупателей через торрент | UTorrent

% Раздел Тема Автор DL S | L
Фильмы [HD 720p, 1080p] (Хороший звук DUB, MVO) [ 7.94 GB ] Далласский клуб покупателей / Dallas Buyers Club [2013 биография BDRip 1080p от еnvy / NNNB] DUB еnvy Скачать
18 | 0
Фильмы 2013 [DVDrip, WEB-DLRip, HDrip] [ 1.46 GB ] Далласский клуб покупателей / Dallas Buyers Club [2013 биография история HDRip] [] Anonymous Скачать
1 | 0
Фильмы 2013 [DVDrip, WEB-DLRip, HDrip] [ 2.13 GB ] Далласский клуб покупателей / Dallas Buyers Club [2013 биография история BDRip-AVC] DUB potroks Скачать
1 | 0
Фильмы [HD 720p, 1080p] (Хороший звук DUB, MVO) [ 6.9 GB ] Далласский клуб покупателей / Dallas Buyers Club [2013 биография история BDRip 720p] MVO [Baibako] + Original Messa-fan Скачать
1 | 0
Фильмы (Blu-ray, BD-Remux, HDDVD) [ 30.97 GB ] Далласский клуб покупателей / Dallas Buyers Club [2013 биография история BDRemux] DUB / лицензия Ворон Скачать
1 | 0
Фильмы (DVD фильмы) [ 6.75 GB ] Далласский клуб покупателей / Dallas Buyers Club [2013 биография история DVD9] R5 voovaz Скачать
1 | 0
Фильмы 2013 [DVDrip, WEB-DLRip, HDrip] [ 2.05 GB ] Далласский клуб покупателей / Dallas Buyers Club [2013 биография история HDRip] DUB [] Ворон Скачать
1 | 0

28-11-2019 20:33  

Отключить всю рекламу на сайте


29-01-2014 17:18 Далласский клуб покупателей Скачать торрент  

Во с переводом,спасибо качаем !pb.wtf



30-01-2014 11:04 Далласский клуб покупателей Скачать торрент  

Никогда не надо сдаваться!!!!pb.wtf



30-01-2014 13:36 Далласский клуб покупателей Скачать торрент  

какой замечательный фильм!pb.wtf



    Дорогой пользователь! Огромная просьба, поблагодарите релизера, оцените раздачу и оставьте свои комментарий, если Вы скачали Далласский клуб покупателей через торрент бесплатно! Внесите свою лепту в развитие PiratBit!
    Комментировать посты могут только пользователи прошедшие не сложную регистрацию
    Показать сообщения:    

    Далласский клуб покупателей через торрент
    Скачать бесплатно Далласский клуб покупателей
    Далласский клуб покупателей скачать торрент
    Далласский клуб покупателей смотреть онлайн
    Cкачать фильм Далласский клуб покупателей бесплатно
    Далласский клуб покупателей скачать торрент в хорошем качестве
    Далласский клуб покупателей смотреть онлайн бесплатно в хорошем качестве


    Вы не можете начинать темы
    Вы не можете отвечать на сообщения
    Вы не можете редактировать свои сообщения
    Вы не можете удалять свои сообщения
    Вы не можете голосовать в опросах
    Вы не можете прикреплять файлы к сообщениям
    Вы можете скачивать файлы