Ссылка на приватное зеркало всего за 1$. Внимание количество ограничено!!!

OK

1+1

iTunes

мы

OK

1

WEB-DLRip

Джокер

Пифагор

Ведьмак / The Witcher сериал

Лицензия

ПШазам

ОК

Оно 2

iTunes

30
pack

Вам бонус

ВАЖНО

!!Акция!!

Alien_RageХит недели

RePack

Resident Evil 21

ИГРА 18+

pack

RePack

jed

!!Акция!!

Alien_Rage

RePack

fifa19

RePack

Assassins Creed: Odyssey

RePack

NEED FOR SPEED™ PAYBACK

4 сезон

9 сезон

Бесстыжие 9 сезон

Все сериалы

все сериалы на PB.wtf

RePack

FAR CRY 5
  

Роботы / Bola Kampung: The Movie (Лунг Ах, Чонг Ти Чуа / Loong Ah, Chong Tee Chua) [2013, мультфильм, фантастика, приключения, DVD5] R5 pb.wtf

Роботы через торрент pb.wtf

Размер: 3.75 GB | Добавлен: 5 лет 9 мес. назад | Торрент скачан:77 раз
Скачать  

15-03-2014 14:36 Роботы Скачать торрент  


Роботы / Bola Kampung: The Movie
Страна: Малайзия
Студия: Animasia Studio, Young Jump Animation Studio
Жанр: мультфильм, фантастика, приключения
Год выпуска: 2013
Мировая премьера: 21 марта 2013
Российская премьера: 23 января 2014, 3D
Дата выхода DVD: 11 марта 2014
Продолжительность: 01:36:07
Перевод: Профессиональный (дублированный) [Лицензия]
Cубтитры: нет
Оригинальная аудиодорожка: нет
Режиссер: Лунг Ах, Чонг Ти Чуа / Loong Ah, Chong Tee Chua
Роли озвучивали: Харрис Алиф, Айзат Амдан, Харун Салим Бачик, Стивен Боун, Эзлин, Дуглас Лим, Марша Милан Лондох, Азнил Хдж Хавави, Рахим Омар, Но Саллех...
Описание: Аманда — юная принцесса из видеоигры «Королевство Хилл». Когда её виртуальное царство подвергается атаке, она волшебным образом переносятся в реальный мир, чтобы найти легендарного «Солнечного воина», который может спасти её дом.
Бонусы: нет

Релиз группы:
Качество: DVD5 R5
Формат: DVD-Video
Видео кодек: MPEG2
Аудио кодек: AC3
Видео: PAL 16:9 (720x576(0.504)) MPEG Video, 25,000 кадр/сек, 5230 Кбит/сек
Аудио: Russian (Dolby AC3, 6 ch) 448 Кбит/сек, 48,0 КГц



Title: Roboty.2013.DVD5
Size: 3.75 Gb ( 3 927 172,00 KBytes ) - DVD-5
Enabled regions: 1, 2, 3, 4, 5, 6, 7, 8

VTS_01 :
Play Length: 01:36:07
Video: PAL 16:9 (720x576) VBR, Auto Letterboxed
Audio:
Russian (Dolby AC3, 6 ch)

VTS_02 :
Play Length: 00:00:08
Video: PAL 4:3 (720x576) VBR

VTS_03 :
Play Length: 00:00:21
Video: PAL 16:9 (720x576) VBR, Auto Letterboxed
Audio:
English (Dolby AC3, 2 ch)

* Menus Information *

VIDEO_TS Menu
Video:
NTSC 4:3 (720x480) VBR
Auto Pan&Scan, Auto Letterboxed
Russian Language Unit :
Title Menu

VTS_01 Menu
Video:
PAL 16:9 (720x576) VBR
Auto Letterboxed
Russian Language Unit :
Root Menu
Chapter (PTT) Menu

VTS_02 Menu
Video:
NTSC 4:3 (720x480) VBR
Auto Pan&Scan, Auto Letterboxed
Language Unit :
Subpicture Menu
Angle menu
Language Unit :

Language Unit :
Audio Menu
Chapter (PTT) Menu
Language Unit :

Language Unit :
Audio Menu
Chapter (PTT) Menu

VTS_03 Menu
Video:
NTSC 4:3 (720x480) VBR
Auto Pan&Scan, Auto Letterboxed
Language Unit :
Subpicture Menu
Angle menu
Language Unit :
Subpicture Menu
Angle menu
Language Unit :
Subpicture Menu
Angle menu
Language Unit :
Subpicture Menu
Angle menu
Language Unit :
Subpicture Menu
Angle menu
Общее
Полное имя : D:Новинки 2014Roboty.2013.DVD5VIDEO_TSVTS_01_2.VOB
Формат : MPEG-PS
Размер файла : 1024 Мбайт
Продолжительность : 24 м.
Режим общего битрейта : Переменный
Общий поток : 5793 Кбит/сек

Видео
Идентификатор : 224 (0xE0)
Формат : MPEG Video
Версия формата : Version 2
Профиль формата : Main@Main
Параметр BVOP формата : Да
Параметр матрицы формата : Выборочная
Параметр GOP формата : Variable
Продолжительность : 24 м.
Вид битрейта : Переменный
Битрейт : 5230 Кбит/сек
Максимальный битрейт : 8000 Кбит/сек
Ширина : 720 пикселей
Высота : 576 пикселей
Соотношение сторон : 16:9
Частота кадров : 25,000 кадров/сек
Стандарт вещания : PAL
Цветовое пространство : YUV
Субдискретизация насыщенности : 4:2:0
Битовая глубина : 8 бит
Тип развёртки : Чересстрочная
Порядок развёртки : Верхнее поле первое
Метод сжатия : С потерями
Бит/(Пиксели*Кадры) : 0.504
Временной код первого кадра : 00:26:13:06
Оригинал временного кода : Group of pictures header
Размер потока : 924 Мбайт (90%)

Аудио
Идентификатор : 189 (0xBD)-128 (0x80)
Формат : AC-3
Формат/Информация : Audio Coding 3
Расширение режима : CM (complete main)
Параметр Endianness формата : Big
Режим смешивания : DVD-Video
Продолжительность : 24 м.
Вид битрейта : Постоянный
Битрейт : 448 Кбит/сек
Каналы : 6 каналов
Расположение каналов : Front: L C R, Side: L R, LFE
Частота : 48,0 КГц
Битовая глубина : 16 бит
Метод сжатия : С потерями
Задержка видео : -808 мс.
Размер потока : 79,2 Мбайт (8%)










pb.wtf



Скачать Роботы через торрент http://i33.fastpic.ru/big/2014/0315/bd/7cc4da096da2f88d8a00cda5d9b8f9bd.jpg Скачать фильм Роботы через торрент бесплантно в хорошем качестве Описание: Аманда — юная принцесса из видеоигры «Королевство Хилл». Когда её виртуальное царство подвергается атаке, она волшебным образом ... 8.5 10 8
Торрент: Зарегистрирован [2014-04-15 16:10] · скачан: 77 раз
Статус: √ проверено
Размер: 3.75 GB
Как cкачать? Как скачать Роботы через торрент | qTorrent

28-11-2019 20:33  

Отключить всю рекламу на сайте

15-03-2014 14:56 Роботы Скачать торрент  

это где вы его нашли? благодарю!pb.wtf



    Дорогой пользователь! Огромная просьба, поблагодарите релизера, оцените раздачу и оставьте свои комментарий, если Вы скачали Роботы через торрент бесплатно! Внесите свою лепту в развитие PiratBit!
    Комментировать посты могут только пользователи прошедшие не сложную регистрацию
    Показать сообщения:    

    Роботы через торрент
    Скачать бесплатно Роботы
    Роботы скачать торрент
    Роботы смотреть онлайн
    Cкачать фильм Роботы бесплатно
    Роботы скачать торрент в хорошем качестве
    Роботы смотреть онлайн бесплатно в хорошем качестве


    Вы не можете начинать темы
    Вы не можете отвечать на сообщения
    Вы не можете редактировать свои сообщения
    Вы не можете удалять свои сообщения
    Вы не можете голосовать в опросах
    Вы не можете прикреплять файлы к сообщениям
    Вы можете скачивать файлы