Ссылка на приватное зеркало всего за 1$. Внимание количество ограничено!!!

iTunes

iTunes

iTunes

1

iTunes

iTunes

iTunes

iTunes

iTunes

30
pack

$ от Little Big

ВАЖНО

!!Акция!!

Alien_RageХит недели

RePack

Resident Evil 21

ИГРА 18+

pack

RePack

jed

!!Акция!!

Alien_Rage

RePack

fifa19

RePack

Assassins Creed: Odyssey

RePack

NEED FOR SPEED™ PAYBACK

4 сезон

9 сезон

Бесстыжие 9 сезон

Все сериалы

все сериалы на PB.wtf

RePack

FAR CRY 5
  

Полицейская история 2013 / Police story (Jing cha gu shi 2013) (Дин Шэн) [2013 г., Боевик, триллер, драма, криминал, BDRip 720p] (Любительский двухголосый ) pb.wtf

Полицейская история 2013 через торрент pb.wtf

Размер: 3.41 GB | Добавлен: 6 лет 2 мес. назад | Торрент скачан:377 раз
Скачать  

16-04-2014 08:32 Полицейская история 2013 Скачать торрент  

Полицейская история 2013 / Jing cha gu shi 2013Год выпуска: 2013
Страна: Китай, Гонконг, China Vision Group, Wanda Media Co.
Жанр: Боевик, триллер, драма, криминал
Продолжительность: 01:46:21
Перевод: Любительский двухголосый - (Дмитрий Познанский и Елена Егорова) [GREEN TEA]

Режиссер: Дин Шэн

В ролях: Джеки Чан, Лю Е, Тянь Цзин, Бо Хуан, Юй Жун Гуан, Александр Байли, Макс Хуан, Джеймс Лоджа, Андреас Нгуйен

Описание: История начинается с того, что посетители паба оказываются взятыми в заложники. Среди посетителей есть офицер полиции Вэнь Чжун и его непослушная дочь Мяомяо. Человек, удерживающий всех в заложниках — владелец паба, который таким образом пытается добиться освобождения из тюрьмы одного преступника…

Субтитры: Английские

Качество: BDRip 720p
Формат: MKV
Видео кодек: MPEG4
Аудио кодек: AC3
Видео: 4124 Кбит/сек, 1280*544 (2,35:1), в 24,000 кадра/сек, AVC (High@L4.1) Бит/(Пиксели*Кадры) : 0.247
Аудио: 224 Кбит/сек, 48,0 КГц, 16 бит, 2 канала, AC-3
Общее
Кол-во : 284
Кол-во потоков такого типа : 1
Тип потока : General
Тип потока : Общее
Идентификатор типа потока : 0
Inform : Matroska: 3,41 Гбайт, 1 ч. 50 м.
Уникальный идентификатор : 221897767432638870553563662580969409472
Уникальный идентификатор : 221897767432638870553563662580969409472 (0xA6EFF49AEF577F0088F9FF5730A08BC0)
Кол-во видеопотоков : 1
Кол-во аудиопотоков : 1
Кол-во текстовых потоков : 1
Кол-во потоков меню : 1
Video_Format_List : AVC
Video_Format_WithHint_List : AVC
Видеокодеки : AVC
Video_Language_List : English
Audio_Format_List : AC-3
Audio_Format_WithHint_List : AC-3
Аудиокодеки : AC3
Audio_Language_List : Russian
Text_Format_List : PGS
Text_Format_WithHint_List : PGS
Текстовые кодеки : S_HDMV/PGS
Text_Language_List : English
Полное имя : E:\фильмы\Policeyskaya.Ist0r1ya.4.2013.BDRip.720p.mkv
Имя папки : E:\фильмы
Имя файла : Policeyskaya.Ist0r1ya.4.2013.BDRip.720p
Расширение : mkv
Формат : Matroska
Формат : Matroska
Формат/Ссылка : http://packs.matroska.org/
Формат/Используется в : mkv mk3d mka mks
Коммерческое название : Matroska
Версия формата : Version 4 / Version 2
Кодек : Matroska
Кодек : Matroska
Кодек/Ссылка : http://packs.matroska.org/
Кодек/Используется в : mkv mk3d mka mks
Размер файла : 3664028368
Размер файла : 3,41 Гбайт
Размер файла : 3 Гбайт
Размер файла : 3,4 Гбайт
Размер файла : 3,41 Гбайт
Размер файла : 3,412 Гбайт
Продолжительность : 6607040
Продолжительность : 1 ч. 50 м.
Продолжительность : 1 ч. 50 м. 7 с. 40 мс.
Продолжительность : 1 ч. 50 м.
Продолжительность : 01:50:07.040
Общий поток : 4436514
Общий поток : 4437 Кбит/сек
Размер потока : 72913487
Размер потока : 69,5 Мбайт (2%)
Размер потока : 70 Мбайт
Размер потока : 70 Мбайт
Размер потока : 69,5 Мбайт
Размер потока : 69,54 Мбайт
Размер потока : 69,5 Мбайт (2%)
Пропорции потока : 0.01990
Дата кодирования : UTC 2014-04-16 06:44:43
Дата файла : UTC 2014-04-16 08:33:51.487
Дата файла (местная) : 2014-04-16 12:33:51.487
Дата изменения файла : UTC 2014-04-16 09:13:57.263
Дата изменения файла (местная) : 2014-04-16 13:13:57.263
Программа кодирования : mkvmerge v6.1.0 ('Old Devil') built on Mar 2 2013 14:32:37
Библиотека кодирования : libebml v1.3.0 + libmatroska v1.4.0
Библиотека кодирования : libebml v1.3.0 + libmatroska v1.4.0

Видео
Кол-во : 274
Кол-во потоков такого типа : 1
Тип потока : Video
Тип потока : Видео
Идентификатор типа потока : 0
StreamOrder : 0
Inform : English, 4124 Кбит/сек, 1280*544 (2,35:1), в 24,000 кадра/сек, AVC (High@L4.1) (CABAC / 4 Ref Frames)
Идентификатор : 1
Идентификатор : 1
Уникальный идентификатор : 1
Формат : AVC
Формат/Информация : Advanced Video Codec
Формат/Ссылка : http://developers.videolan.org/x264.html
Коммерческое название : AVC
Профиль формата : High@L4.1
Настройки формата : CABAC / 4 Ref Frames
Параметр CABAC формата : Yes
Параметр CABAC формата : Да
Параметр ReFrames формата : 4
Параметр ReFrames формата : 4 кадра
Интернет-тип носителя : video/H264
Идентификатор кодека : V_MPEG4/ISO/AVC
Идентификатор кодека/Ссылка : http://ffdshow-tryout.sourceforge.net/
Кодек : V_MPEG4/ISO/AVC
Кодек : AVC
Кодек/Семейство : AVC
Кодек/Информация : Advanced Video Codec
Кодек/Ссылка : http://ffdshow-tryout.sourceforge.net/
Профиль кодека : High@L4.1
Настройки кодека : CABAC / 4 Ref Frames
Параметр CABAC кодека : Yes
Codec_Settings_RefFrames : 4
Продолжительность : 6607042
Продолжительность : 1 ч. 50 м.
Продолжительность : 1 ч. 50 м. 7 с. 42 мс.
Продолжительность : 1 ч. 50 м.
Продолжительность : 01:50:07.042
Битрейт : 4124227
Битрейт : 4124 Кбит/сек
Ширина : 1280
Ширина : 1280 пикселей
Высота : 544
Высота : 544 пикселя
Пропорции пикселя : 1.000
Соотношение сторон : 2.353
Соотношение сторон : 2,35:1
Режим частоты кадров : CFR
Режим частоты кадров : Постоянный
Частота кадров : 24.000
Частота кадров : 24,000 кадра/сек
Счётчик кадров : 158569
Разрешение : 8
Разрешение : 8 бит
Колориметрия : 4:2:0
Цветовое пространство : YUV
Субдискретизация насыщенности : 4:2:0
Битовая глубина : 8
Битовая глубина : 8 бит
Тип развёртки : Progressive
Тип развёртки : Прогрессивная
Переплетение : PPF
Переплетение : Прогрессивная
Бит/(Пиксели*Кадры) : 0.247
Задержка : 0
Задержка : 00:00:00.000
Задержка в оригинале : Container
Задержка в оригинале : Контейнер
Размер потока : 3406117761
Размер потока : 3,17 Гбайт (93%)
Размер потока : 3 Гбайт
Размер потока : 3,2 Гбайт
Размер потока : 3,17 Гбайт
Размер потока : 3,172 Гбайт
Размер потока : 3,17 Гбайт (93%)
Пропорции потока : 0.92961
Библиотека кодирования : x264 - core 138 r2358 9e941d1
Библиотека кодирования : x264 core 138 r2358 9e941d1
Библиотека кодирования/Имя : x264
Библиотека кодирования/Version : core 138 r2358 9e941d1
Язык : en
Язык : English
Язык : English
Язык : en
Язык : eng
Язык : en
Default : Yes
Default : Да
Forced : No
Forced : Нет

Аудио
Кол-во : 235
Кол-во потоков такого типа : 1
Тип потока : Audio
Тип потока : Аудио
Идентификатор типа потока : 0
StreamOrder : 1
Inform : Russian, 224 Кбит/сек, 48,0 КГц, 16 бит, 2 канала, AC-3
Идентификатор : 2
Идентификатор : 2
Уникальный идентификатор : 7442880452187695545
Формат : AC-3
Формат/Информация : Audio Coding 3
Коммерческое название : AC-3
Расширение режима : CM (complete main)
Параметр Endianness формата : Big
Идентификатор кодека : A_AC3
Кодек : AC3
Кодек : AC3
Кодек/Семейство : AC3
Кодек/Информация : Dolby AC3
Продолжительность : 6607040
Продолжительность : 1 ч. 50 м.
Продолжительность : 1 ч. 50 м. 7 с. 40 мс.
Продолжительность : 1 ч. 50 м.
Продолжительность : 01:50:07.040
Вид битрейта : CBR
Вид битрейта : Постоянный
Битрейт : 224000
Битрейт : 224 Кбит/сек
Каналы : 2
Каналы : 2 канала
Расположение каналов : Front: L R
Расположение каналов : 2/0/0
ChannelLayout : L R
Частота : 48000
Частота : 48,0 КГц
Количество образцов : 317137920
Разрешение : 16
Разрешение : 16 бит
Битовая глубина : 16
Битовая глубина : 16 бит
Метод сжатия : Lossy
Метод сжатия : С потерями
Задержка : 0
Задержка : 00:00:00.000
Задержка в оригинале : Container
Задержка в оригинале : Контейнер
Задержка видео : 0
Задержка видео : 0
Размер потока : 184997120
Размер потока : 176 Мбайт (5%)
Размер потока : 176 Мбайт
Размер потока : 176 Мбайт
Размер потока : 176 Мбайт
Размер потока : 176,4 Мбайт
Размер потока : 176 Мбайт (5%)
Пропорции потока : 0.05049
Язык : ru
Язык : Russian
Язык : Russian
Язык : ru
Язык : rus
Язык : ru
Default : Yes
Default : Да
Forced : No
Forced : Нет
bsid : 8
dialnorm : -31
dialnorm/String : -31 dB
dsurmod : 0
acmod : 2
lfeon : 0
dialnorm_Average : -31
dialnorm_Average/String : -31 dB
dialnorm_Minimum : -31
dialnorm_Minimum/String : -31 dB
dialnorm_Maximum : -31
dialnorm_Maximum/String : -31 dB
dialnorm_Count : 2

Текст
Кол-во : 195
Кол-во потоков такого типа : 1
Тип потока : Text
Тип потока : Текст
Идентификатор типа потока : 0
StreamOrder : 2
Inform : English, PGS (zlib)
Идентификатор : 3
Идентификатор : 3
Уникальный идентификатор : 5981788963638638994
Формат : PGS
Коммерческое название : PGS
Режим смешивания : zlib
Идентификатор кодека : S_HDMV/PGS
Идентификатор кодека/Информация : The same subtitle format used on BDs/HD-DVDs
Кодек : S_HDMV/PGS
Кодек : S_HDMV/PGS
Язык : en
Язык : English
Язык : English
Язык : en
Язык : eng
Язык : en
Default : No
Default : Нет
Forced : No
Forced : Нет

Меню
Кол-во : 89
Кол-во потоков такого типа : 1
Тип потока : Menu
Тип потока : Меню
Идентификатор типа потока : 0
Chapters_Pos_Begin : 77
Chapters_Pos_End : 89
00:00:00.000 : zh:
00:09:49.000 : zh:
00:19:52.000 : zh:
00:28:14.625 : zh:
00:37:56.000 : zh:
00:47:41.000 : zh:
00:56:41.000 : zh:
01:05:11.000 : zh:
01:15:06.000 : zh:
01:25:26.000 : zh:
01:34:59.000 : zh:
01:43:00.000 : zh:



pb.wtf
KMessa-fan писал(а):

#сомнительно

Цитата:

deblock=1:0:0 / me=hex / subme=2 / psy=1 / psy_rd=2.00:0.70

MI: ссылка



Скачать Полицейская история 2013 через торрент http://trueimages.ru/img/15/2a/54d2cf25.jpg Скачать фильм Полицейская история 2013 через торрент бесплантно в хорошем качестве Описание: История начинается с того, что посетители паба оказываются взятыми в заложники. Среди посетителей есть офицер полиции Вэнь Чжун и ... 10 10 9
Торрент: Зарегистрирован [2014-04-16 08:32] · скачан: 377 раз
Статус: # сомнительно
Размер: 3.41 GB
Как cкачать? Как скачать Полицейская история 2013 через торрент | qTorrent

% Раздел Тема Автор DL S | L
Фильмы (Blu-ray, BD-Remux, HDDVD) [ 36.09 GB ] Полицейская история 2013 / Police story 2013 [2013 Blu-ray 1080p] 2xAVO [С.Визгунов А.Дольский] Бумер Скачать
1 | 0


Последний раз редактировалось: ЦККПСС (2014-04-16 15:53), всего редактировалось 6 раз(а)

28-11-2019 20:33  

Отключить всю рекламу на сайте

16-04-2014 09:22 Полицейская история 2013 Скачать торрент  

Цитата:

Перевод: Любительский двухголосый - (Дмитрий Познанский и Елена Егорова) [GREEN TEA]

перевод должен быть отражен в заголовке

Код:

Название на русском / Название на оригинале (режиссер) [год, жанр, качество] Перевод

обозначения переводов Что означают буквы: DVO, MVO, VO, DUB, AVO, SUB в Названии Тем?!

Цитата:

Качество: BDRip 720p
Формат: AVI

нет

Цитата:

Видео: MPEG-4 AVC, 4095 Кбит/с, 1280x544
Аудио: AC3, 2 ch, 192 Кбит/с

Код:

Видео: размер кадра(пикселях), битрейт видео(kbps), частота кадра(fps), Бит/(Пиксели*Кадры)

Аудио: Битрейт аудио (kbps), каналы( ch), частота звука (КГц)

Предоставьте отчёт MediaInfo
Как получить информацию по видеофайлу
Об исправлении сообщите в лс со ссылкой на раздачу.pb.wtf



16-04-2014 09:25 Полицейская история 2013 Скачать торрент  

Очень слабый фильм!!! pb.wtf



16-04-2014 13:56 Полицейская история 2013 Скачать торрент  

да можно 1 раз глянуть время убитьpb.wtf



    Дорогой пользователь! Огромная просьба, поблагодарите релизера, оцените раздачу и оставьте свои комментарий, если Вы скачали Полицейская история 2013 через торрент бесплатно! Внесите свою лепту в развитие PiratBit!
    Комментировать посты могут только пользователи прошедшие не сложную регистрацию
    Показать сообщения:    

    Полицейская история 2013 через торрент
    Скачать бесплатно Полицейская история 2013
    Полицейская история 2013 скачать торрент
    Полицейская история 2013 смотреть онлайн
    Cкачать фильм Полицейская история 2013 бесплатно
    Полицейская история 2013 скачать торрент в хорошем качестве
    Полицейская история 2013 смотреть онлайн бесплатно в хорошем качестве


    Вы не можете начинать темы
    Вы не можете отвечать на сообщения
    Вы не можете редактировать свои сообщения
    Вы не можете удалять свои сообщения
    Вы не можете голосовать в опросах
    Вы не можете прикреплять файлы к сообщениям
    Вы можете скачивать файлы