Ссылка на приватное зеркало нашего сайта всего за 1$. Внимание количество ограничено!!!

2 сезон

iTunes

1 сезон

1

2 сезон

2 сезон

iTunes

1 сезон

RePack

30

Новинка

ВАЖНО

ИГРА 18+

pack

RePack

MK11
pack

Забери бонус

RePack

jed

!!Акция!!

Alien_Rage

RePack

fifa19

RePack

Assassins Creed: Odyssey

RePack

NEED FOR SPEED™ PAYBACK

4 сезон

9 сезон

Бесстыжие 9 сезон

Все сериалы

все сериалы на PB.wtf

RePack

FAR CRY 5
  

Культ / Cult / Сезон: 1 / Серии 1-13 из 13 (Нэйтан Хоуп / Nathan Hope, Аллен Крокер / Allan Kroeker, Лесли Либман / Leslie Libman) [2013, США, триллер, драма, детектив, WEB-DLRip720] (LostFilm) pb.wtf

Культ через торрент pb.wtf

Размер: 18.37 GB | Добавлен: 6 лет 7 мес. назад | Торрент скачан:23 раза
Скачать  

16-04-2014 11:59 Культ Скачать торрент  

Культ / CultСмотреть не значит видеть..
Год выпуска: 2013
Страна: США
Жанр: триллер, драма, детектив
Продолжительность: 00:42:42
Перевод: Профессиональный (многоголосый, закадровый) (LostFilm)
Субтитры: Нет
Режиссер: Нэйтан Хоуп / Nathan Hope, Аллен Крокер / Allan Kroeker, Лесли Либман / Leslie Libman
Сценарий: Рокни С. О’Бэннон / Rockne S. O'Bannon, Ганс Тобисон / Hans Tobeason, Крэйг Гор / Craig Gore, Меган Мартин / Megan Martin, Линдсэй Стурман / Lindsay Sturman
Продюсер: Крэйг Гор / Craig Gore, Рик Хьюберт / Rick Hubert, Джон Б. Моранвиль / John B. Moranville, Линдсэй Стурман / Lindsay Sturman, Тим Уолш / Tim Walsh
Оператор: Аттила Сзэлэй / Attila Szalay, Роберт Ганц / Robert Gantz
Композитор: Тим Джонс / Tim Jones
В ролях:
Мэттью Дэвис (Jeff Sefton), Джессика Лукас (Skye Yarrow), Алона Тал (Kelly Collins), Роберт Неппер (Billy Grimm), Мари Авгеропулос (Kirstie Nelson), Джеффри Пирс (Stuart Reynolds), Кадим Хардисон (Paz), Джеймс Пиццинато (Nate Sefton), Кристиан Майкл Купер (Andy), Шона Йоханнесен (Meadow Roberts), Аиша Хиндс (Det. Rosalind Sakelik), Бен Холлингсворт (Peter Grey)
Мировая премьера: 12 февраля 2013
Описание:
Мистический сериал расскажет нам о ряде таинственных событий, в результате которых исчезли люди. Молодая помощница продюсера в тандеме с блоггером-журналистом начинают вести расследование среди группы ярых фанатиков, которые осуществляют убийства из телешоу.
Рейтинг
kinopoisk.ru: 5.989 (1095)
imdb.com: 6.20 (3508)
Качество: WEB-DLRip720
Формат: MKV
Видео кодек: AVC
Аудио кодек: AC3
Видео: 4041 Кбит/сек, 1280*720 (16:9), в 23,976 кадра/сек, AVC
Аудио №1: Русский 384 Кбит/сек, 48,0 КГц, 16 бит, 2 канала, AC-3
Аудио №2: Английский 384 Кбит/сек, 48,0 КГц, 16 бит, 2 канала, AC-3
Общее
Кол-во : 284
Кол-во потоков такого типа : 1
Тип потока : General
Тип потока : Общее
Идентификатор типа потока : 0
Inform : Matroska: 1,43 Гбайт, 42 м.
Уникальный идентификатор : 178961961391857404265828436724358888045
Уникальный идентификатор : 178961961391857404265828436724358888045 (0x86A2D1EDD1BFE599AF7EE995EE50BA6D)
Кол-во видеопотоков : 1
Кол-во аудиопотоков : 2
Video_Format_List : AVC
Video_Format_WithHint_List : AVC
Видеокодеки : AVC
Video_Language_List : English
Audio_Format_List : AC-3 / AC-3
Audio_Format_WithHint_List : AC-3 / AC-3
Аудиокодеки : AC3 / AC3
Audio_Language_List : / English
Полное имя : H:\ТОРРЕНТЫ\Культ(Сезон 1)\Культ(Сезон 1)E01.720p.rus.LostFilm.TV.mkv
Имя папки : H:\ТОРРЕНТЫ\Культ(Сезон 1)
Имя файла : Культ(Сезон 1)E01.720p.rus.LostFilm.TV
Расширение : mkv
Формат : Matroska
Формат : Matroska
Формат/Ссылка : http://packs.matroska.org/
Формат/Используется в : mkv mk3d mka mks
Коммерческое название : Matroska
Версия формата : Version 2
Кодек : Matroska
Кодек : Matroska
Кодек/Ссылка : http://packs.matroska.org/
Кодек/Используется в : mkv mk3d mka mks
Размер файла : 1539632260
Размер файла : 1,43 Гбайт
Размер файла : 1 Гбайт
Размер файла : 1,4 Гбайт
Размер файла : 1,43 Гбайт
Размер файла : 1,434 Гбайт
Продолжительность : 2559891
Продолжительность : 42 м.
Продолжительность : 42 м. 39 с. 891 мс.
Продолжительность : 42 м.
Продолжительность : 00:42:39.891
Общий поток : 4811556
Общий поток : 4812 Кбит/сек
Размер потока : 30637483
Размер потока : 29,2 Мбайт (2%)
Размер потока : 29 Мбайт
Размер потока : 29 Мбайт
Размер потока : 29,2 Мбайт
Размер потока : 29,22 Мбайт
Размер потока : 29,2 Мбайт (2%)
Пропорции потока : 0.01990
Дата кодирования : UTC 2013-02-23 17:28:23
Дата файла : UTC 2014-04-16 05:15:50.213
Дата файла (местная) : 2014-04-16 12:15:50.213
Дата изменения файла : UTC 2014-04-16 07:46:44.791
Дата изменения файла (местная) : 2014-04-16 14:46:44.791
Программа кодирования : mkvmerge v4.2.0 ('No Talking') сборка от Jul 28 2010 18:38:23
Библиотека кодирования : libebml v1.0.0 + libmatroska v1.0.0
Библиотека кодирования : libebml v1.0.0 + libmatroska v1.0.0

Видео
Кол-во : 271
Кол-во потоков такого типа : 1
Тип потока : Video
Тип потока : Видео
Идентификатор типа потока : 0
StreamOrder : 0
Inform : 4041 Кбит/сек, 1280*720 (16:9), в 23,976 кадра/сек, AVC (High@L3.1) (CABAC / 4 Ref Frames)
Идентификатор : 1
Идентификатор : 1
Уникальный идентификатор : 1707815340
Формат : AVC
Формат/Информация : Advanced Video Codec
Формат/Ссылка : http://developers.videolan.org/x264.html
Коммерческое название : AVC
Профиль формата : High@L3.1
Настройки формата : CABAC / 4 Ref Frames
Параметр CABAC формата : Yes
Параметр CABAC формата : Да
Параметр ReFrames формата : 4
Параметр ReFrames формата : 4 кадра
Интернет-тип носителя : video/H264
Идентификатор кодека : V_MPEG4/ISO/AVC
Идентификатор кодека/Ссылка : http://ffdshow-tryout.sourceforge.net/
Кодек : V_MPEG4/ISO/AVC
Кодек : AVC
Кодек/Семейство : AVC
Кодек/Информация : Advanced Video Codec
Кодек/Ссылка : http://ffdshow-tryout.sourceforge.net/
Профиль кодека : High@L3.1
Настройки кодека : CABAC / 4 Ref Frames
Параметр CABAC кодека : Yes
Codec_Settings_RefFrames : 4
Продолжительность : 2559893
Продолжительность : 42 м.
Продолжительность : 42 м. 39 с. 893 мс.
Продолжительность : 42 м.
Продолжительность : 00:42:39.893
Битрейт : 4041000
Битрейт : 4041 Кбит/сек
Ширина : 1280
Ширина : 1280 пикселей
Высота : 720
Высота : 720 пикселей
Пропорции пикселя : 1.000
Соотношение сторон : 1.778
Соотношение сторон : 16:9
Режим частоты кадров : CFR
Режим частоты кадров : Постоянный
Частота кадров : 23.976
Частота кадров : 23,976 кадра/сек
Счётчик кадров : 61376
Разрешение : 8
Разрешение : 8 бит
Колориметрия : 4:2:0
Цветовое пространство : YUV
Субдискретизация насыщенности : 4:2:0
Битовая глубина : 8
Битовая глубина : 8 бит
Тип развёртки : Progressive
Тип развёртки : Прогрессивная
Переплетение : PPF
Переплетение : Прогрессивная
Бит/(Пиксели*Кадры) : 0.183
Задержка : 0
Задержка : 00:00:00.000
Задержка в оригинале : Container
Задержка в оригинале : Контейнер
Размер потока : 1263245241
Размер потока : 1,18 Гбайт (82%)
Размер потока : 1 Гбайт
Размер потока : 1,2 Гбайт
Размер потока : 1,18 Гбайт
Размер потока : 1,176 Гбайт
Размер потока : 1,18 Гбайт (82%)
Пропорции потока : 0.82049
Библиотека кодирования : x264 - core 112 r1834 a51816a
Библиотека кодирования : x264 core 112 r1834 a51816a
Библиотека кодирования/Имя : x264
Библиотека кодирования/Version : core 112 r1834 a51816a
Настройки программы : cabac=1 / ref=1 / deblock=1:0:0 / analyse=0x3:0x113 / me=hex / subme=7 / psy=1 / psy_rd=1.00:0.00 / mixed_ref=0 / me_range=16 / chroma_me=1 / trellis=1 / 8x8dct=1 / cqm=0 / deadzone=21,11 / fast_pskip=1 / chroma_qp_offset=-2 / threads=6 / sliced_threads=0 / nr=0 / decimate=1 / interlaced=0 / constrained_intra=0 / bframes=3 / b_pyramid=2 / b_adapt=1 / b_bias=0 / direct=1 / weightb=1 / open_gop=0 / weightp=2 / keyint=250 / keyint_min=25 / scenecut=40 / intra_refresh=0 / rc_lookahead=40 / rc=2pass / mbtree=1 / bitrate=4041 / ratetol=1.0 / qcomp=0.60 / qpmin=0 / qpmax=51 / qpstep=4 / cplxblur=20.0 / qblur=0.5 / ip_ratio=1.40 / aq=1:1.00
Default : Yes
Default : Да
Forced : No
Forced : Нет

Аудио #1
Кол-во : 235
Кол-во потоков такого типа : 2
Тип потока : Audio
Тип потока : Аудио
Идентификатор типа потока : 0
Позиция идентификатора типа потока : 1
StreamOrder : 1
Inform : 384 Кбит/сек, 48,0 КГц, 16 бит, 2 канала, AC-3
Идентификатор : 2
Идентификатор : 2
Уникальный идентификатор : 3509759167
Формат : AC-3
Формат/Информация : Audio Coding 3
Коммерческое название : AC-3
Расширение режима : CM (complete main)
Параметр Endianness формата : Big
Идентификатор кодека : A_AC3
Кодек : AC3
Кодек : AC3
Кодек/Семейство : AC3
Кодек/Информация : Dolby AC3
Продолжительность : 2559891
Продолжительность : 42 м.
Продолжительность : 42 м. 39 с. 891 мс.
Продолжительность : 42 м.
Продолжительность : 00:42:39.891
Вид битрейта : CBR
Вид битрейта : Постоянный
Битрейт : 384000
Битрейт : 384 Кбит/сек
Каналы : 2
Каналы : 2 канала
Расположение каналов : Front: L R
Расположение каналов : 2/0/0
Частота : 48000
Частота : 48,0 КГц
Количество образцов : 122874768
Разрешение : 16
Разрешение : 16 бит
Битовая глубина : 16
Битовая глубина : 16 бит
Метод сжатия : Lossy
Метод сжатия : С потерями
Задержка : 0
Задержка : 00:00:00.000
Задержка в оригинале : Container
Задержка в оригинале : Контейнер
Задержка видео : 0
Задержка видео : 0
Размер потока : 122874768
Размер потока : 117 Мбайт (8%)
Размер потока : 117 Мбайт
Размер потока : 117 Мбайт
Размер потока : 117 Мбайт
Размер потока : 117,2 Мбайт
Размер потока : 117 Мбайт (8%)
Пропорции потока : 0.07981
Default : Yes
Default : Да
Forced : No
Forced : Нет
bsid : 8
dialnorm : -31
dialnorm/String : -31 dB
dsurmod : 0
acmod : 2
lfeon : 0
dialnorm_Average : -31
dialnorm_Average/String : -31 dB
dialnorm_Minimum : -31
dialnorm_Minimum/String : -31 dB
dialnorm_Maximum : -31
dialnorm_Maximum/String : -31 dB
dialnorm_Count : 2

Аудио #2
Кол-во : 235
Кол-во потоков такого типа : 2
Тип потока : Audio
Тип потока : Аудио
Идентификатор типа потока : 1
Позиция идентификатора типа потока : 2
StreamOrder : 2
Inform : 384 Кбит/сек, 48,0 КГц, 16 бит, 2 канала, AC-3
Идентификатор : 3
Идентификатор : 3
Уникальный идентификатор : 1457189250
Формат : AC-3
Формат/Информация : Audio Coding 3
Коммерческое название : AC-3
Расширение режима : CM (complete main)
Параметр Endianness формата : Big
Идентификатор кодека : A_AC3
Кодек : AC3
Кодек : AC3
Кодек/Семейство : AC3
Кодек/Информация : Dolby AC3
Продолжительность : 2559891
Продолжительность : 42 м.
Продолжительность : 42 м. 39 с. 891 мс.
Продолжительность : 42 м.
Продолжительность : 00:42:39.891
Вид битрейта : CBR
Вид битрейта : Постоянный
Битрейт : 384000
Битрейт : 384 Кбит/сек
Каналы : 2
Каналы : 2 канала
Расположение каналов : Front: L R
Расположение каналов : 2/0/0
Частота : 48000
Частота : 48,0 КГц
Количество образцов : 122874768
Разрешение : 16
Разрешение : 16 бит
Битовая глубина : 16
Битовая глубина : 16 бит
Метод сжатия : Lossy
Метод сжатия : С потерями
Задержка : 0
Задержка : 00:00:00.000
Задержка в оригинале : Container
Задержка в оригинале : Контейнер
Задержка видео : 0
Задержка видео : 0
Размер потока : 122874768
Размер потока : 117 Мбайт (8%)
Размер потока : 117 Мбайт
Размер потока : 117 Мбайт
Размер потока : 117 Мбайт
Размер потока : 117,2 Мбайт
Размер потока : 117 Мбайт (8%)
Пропорции потока : 0.07981
Default : No
Default : Нет
Forced : No
Forced : Нет
bsid : 8
dialnorm : -31
dialnorm/String : -31 dB
dsurmod : 0
acmod : 2
lfeon : 0
dialnorm_Average : -31
dialnorm_Average/String : -31 dB
dialnorm_Minimum : -31
dialnorm_Minimum/String : -31 dB
dialnorm_Maximum : -31
dialnorm_Maximum/String : -31 dB
dialnorm_Count : 2

Общее
Уникальный идентификатор : 250631059336798425271196745609658051286 (0xBC8DC94584D325C4A91C8DB2D7452AD6)
Полное имя : H:\ТОРРЕНТЫ\Культ(Сезон 1)\Культ(Сезон 1)E05.720p.rus.LostFilm.TV.mkv
Формат : Matroska
Версия формата : Version 2
Размер файла : 1,40 Гбайт
Продолжительность : 41 м.
Общий поток : 4811 Кбит/сек
Дата кодирования : UTC 2013-03-25 18:13:26
Программа кодирования : mkvmerge v4.2.0 ('No Talking') сборка от Jul 28 2010 18:38:23
Библиотека кодирования : libebml v1.0.0 + libmatroska v1.0.0

Видео
Идентификатор : 1
Формат : AVC
Формат/Информация : Advanced Video Codec
Профиль формата : High@L3.1
Параметр CABAC формата : Да
Параметр ReFrames формата : 4 кадра
Идентификатор кодека : V_MPEG4/ISO/AVC
Продолжительность : 41 м.
Битрейт : 4041 Кбит/сек
Ширина : 1280 пикселей
Высота : 720 пикселей
Соотношение сторон : 16:9
Режим частоты кадров : Постоянный
Частота кадров : 23,976 кадра/сек
Цветовое пространство : YUV
Субдискретизация насыщенности : 4:2:0
Битовая глубина : 8 бит
Тип развёртки : Прогрессивная
Бит/(Пиксели*Кадры) : 0.183
Размер потока : 1,15 Гбайт (82%)
Библиотека кодирования : x264 core 112 r1834 a51816a
Настройки программы : cabac=1 / ref=1 / deblock=1:0:0 / analyse=0x3:0x113 / me=hex / subme=7 / psy=1 / psy_rd=1.00:0.00 / mixed_ref=0 / me_range=16 / chroma_me=1 / trellis=1 / 8x8dct=1 / cqm=0 / deadzone=21,11 / fast_pskip=1 / chroma_qp_offset=-2 / threads=6 / sliced_threads=0 / nr=0 / decimate=1 / interlaced=0 / constrained_intra=0 / bframes=3 / b_pyramid=2 / b_adapt=1 / b_bias=0 / direct=1 / weightb=1 / open_gop=0 / weightp=2 / keyint=250 / keyint_min=25 / scenecut=40 / intra_refresh=0 / rc_lookahead=40 / rc=2pass / mbtree=1 / bitrate=4041 / ratetol=1.0 / qcomp=0.60 / qpmin=0 / qpmax=51 / qpstep=4 / cplxblur=20.0 / qblur=0.5 / ip_ratio=1.40 / aq=1:1.00
Default : Да
Forced : Нет

Аудио #1
Идентификатор : 2
Формат : AC-3
Формат/Информация : Audio Coding 3
Расширение режима : CM (complete main)
Параметр Endianness формата : Big
Идентификатор кодека : A_AC3
Продолжительность : 41 м.
Вид битрейта : Постоянный
Битрейт : 384 Кбит/сек
Каналы : 2 канала
Расположение каналов : Front: L R
Частота : 48,0 КГц
Битовая глубина : 16 бит
Метод сжатия : С потерями
Размер потока : 115 Мбайт (8%)
Default : Да
Forced : Нет

Аудио #2
Идентификатор : 3
Формат : AC-3
Формат/Информация : Audio Coding 3
Расширение режима : CM (complete main)
Параметр Endianness формата : Big
Идентификатор кодека : A_AC3
Продолжительность : 41 м.
Вид битрейта : Постоянный
Битрейт : 384 Кбит/сек
Каналы : 2 канала
Расположение каналов : Front: L R
Частота : 48,0 КГц
Битовая глубина : 16 бит
Метод сжатия : С потерями
Размер потока : 115 Мбайт (8%)
Default : Нет
Forced : Нет

Общее
Уникальный идентификатор : 226059074592552419781512712514252838847 (0xAA1164E376CE15ECA9F3ECA1E7E417BF)
Полное имя : H:\ТОРРЕНТЫ\Культ(Сезон 1)\Культ(Сезон 1)E06.720p.rus.LostFilm.TV.mkv
Формат : Matroska
Версия формата : Version 2
Размер файла : 1,39 Гбайт
Продолжительность : 41 м.
Общий поток : 4811 Кбит/сек
Дата кодирования : UTC 2013-04-01 15:34:00
Программа кодирования : mkvmerge v4.2.0 ('No Talking') сборка от Jul 28 2010 18:38:23
Библиотека кодирования : libebml v1.0.0 + libmatroska v1.0.0

Видео
Идентификатор : 1
Формат : AVC
Формат/Информация : Advanced Video Codec
Профиль формата : High@L3.1
Параметр CABAC формата : Да
Параметр ReFrames формата : 4 кадра
Идентификатор кодека : V_MPEG4/ISO/AVC
Продолжительность : 41 м.
Битрейт : 4041 Кбит/сек
Ширина : 1280 пикселей
Высота : 720 пикселей
Соотношение сторон : 16:9
Режим частоты кадров : Постоянный
Частота кадров : 23,976 кадра/сек
Цветовое пространство : YUV
Субдискретизация насыщенности : 4:2:0
Битовая глубина : 8 бит
Тип развёртки : Прогрессивная
Бит/(Пиксели*Кадры) : 0.183
Размер потока : 1,14 Гбайт (82%)
Библиотека кодирования : x264 core 112 r1834 a51816a
Настройки программы : cabac=1 / ref=1 / deblock=1:0:0 / analyse=0x3:0x113 / me=hex / subme=7 / psy=1 / psy_rd=1.00:0.00 / mixed_ref=0 / me_range=16 / chroma_me=1 / trellis=1 / 8x8dct=1 / cqm=0 / deadzone=21,11 / fast_pskip=1 / chroma_qp_offset=-2 / threads=6 / sliced_threads=0 / nr=0 / decimate=1 / interlaced=0 / constrained_intra=0 / bframes=3 / b_pyramid=2 / b_adapt=1 / b_bias=0 / direct=1 / weightb=1 / open_gop=0 / weightp=2 / keyint=250 / keyint_min=25 / scenecut=40 / intra_refresh=0 / rc_lookahead=40 / rc=2pass / mbtree=1 / bitrate=4041 / ratetol=1.0 / qcomp=0.60 / qpmin=0 / qpmax=51 / qpstep=4 / cplxblur=20.0 / qblur=0.5 / ip_ratio=1.40 / aq=1:1.00
Default : Да
Forced : Нет

Аудио #1
Идентификатор : 2
Формат : AC-3
Формат/Информация : Audio Coding 3
Расширение режима : CM (complete main)
Параметр Endianness формата : Big
Идентификатор кодека : A_AC3
Продолжительность : 41 м.
Вид битрейта : Постоянный
Битрейт : 384 Кбит/сек
Каналы : 2 канала
Расположение каналов : Front: L R
Частота : 48,0 КГц
Битовая глубина : 16 бит
Метод сжатия : С потерями
Размер потока : 114 Мбайт (8%)
Default : Да
Forced : Нет

Аудио #2
Идентификатор : 3
Формат : AC-3
Формат/Информация : Audio Coding 3
Расширение режима : CM (complete main)
Параметр Endianness формата : Big
Идентификатор кодека : A_AC3
Продолжительность : 41 м.
Вид битрейта : Постоянный
Битрейт : 384 Кбит/сек
Каналы : 2 канала
Расположение каналов : Front: L R
Частота : 48,0 КГц
Битовая глубина : 16 бит
Метод сжатия : С потерями
Размер потока : 114 Мбайт (8%)
Default : Нет
Forced : Нет

Общее
Уникальный идентификатор : 240225256283443047878916466678381358549 (0xB4B9B3920F2E7B11BD8FE4A6A8BF2DD5)
Полное имя : H:\ТОРРЕНТЫ\Культ(Сезон 1)\Культ(Сезон 1)E07.720p.rus.LostFilm.TV.mkv
Формат : Matroska
Версия формата : Version 2
Размер файла : 1,42 Гбайт
Продолжительность : 42 м.
Общий поток : 4811 Кбит/сек
Дата кодирования : UTC 2013-04-08 13:35:05
Программа кодирования : mkvmerge v4.2.0 ('No Talking') сборка от Jul 28 2010 18:38:23
Библиотека кодирования : libebml v1.0.0 + libmatroska v1.0.0

Видео
Идентификатор : 1
Формат : AVC
Формат/Информация : Advanced Video Codec
Профиль формата : High@L3.1
Параметр CABAC формата : Да
Параметр ReFrames формата : 4 кадра
Идентификатор кодека : V_MPEG4/ISO/AVC
Продолжительность : 42 м.
Битрейт : 4041 Кбит/сек
Ширина : 1280 пикселей
Высота : 720 пикселей
Соотношение сторон : 16:9
Режим частоты кадров : Постоянный
Частота кадров : 23,976 кадра/сек
Цветовое пространство : YUV
Субдискретизация насыщенности : 4:2:0
Битовая глубина : 8 бит
Тип развёртки : Прогрессивная
Бит/(Пиксели*Кадры) : 0.183
Размер потока : 1,17 Гбайт (82%)
Библиотека кодирования : x264 core 112 r1834 a51816a
Настройки программы : cabac=1 / ref=1 / deblock=1:0:0 / analyse=0x3:0x113 / me=hex / subme=7 / psy=1 / psy_rd=1.00:0.00 / mixed_ref=0 / me_range=16 / chroma_me=1 / trellis=1 / 8x8dct=1 / cqm=0 / deadzone=21,11 / fast_pskip=1 / chroma_qp_offset=-2 / threads=6 / sliced_threads=0 / nr=0 / decimate=1 / interlaced=0 / constrained_intra=0 / bframes=3 / b_pyramid=2 / b_adapt=1 / b_bias=0 / direct=1 / weightb=1 / open_gop=0 / weightp=2 / keyint=250 / keyint_min=25 / scenecut=40 / intra_refresh=0 / rc_lookahead=40 / rc=2pass / mbtree=1 / bitrate=4041 / ratetol=1.0 / qcomp=0.60 / qpmin=0 / qpmax=51 / qpstep=4 / cplxblur=20.0 / qblur=0.5 / ip_ratio=1.40 / aq=1:1.00
Default : Да
Forced : Нет

Аудио #1
Идентификатор : 2
Формат : AC-3
Формат/Информация : Audio Coding 3
Расширение режима : CM (complete main)
Параметр Endianness формата : Big
Идентификатор кодека : A_AC3
Продолжительность : 42 м.
Вид битрейта : Постоянный
Битрейт : 384 Кбит/сек
Каналы : 2 канала
Расположение каналов : Front: L R
Частота : 48,0 КГц
Битовая глубина : 16 бит
Метод сжатия : С потерями
Размер потока : 116 Мбайт (8%)
Default : Да
Forced : Нет

Аудио #2
Идентификатор : 3
Формат : AC-3
Формат/Информация : Audio Coding 3
Расширение режима : CM (complete main)
Параметр Endianness формата : Big
Идентификатор кодека : A_AC3
Продолжительность : 42 м.
Вид битрейта : Постоянный
Битрейт : 384 Кбит/сек
Каналы : 2 канала
Расположение каналов : Front: L R
Частота : 48,0 КГц
Битовая глубина : 16 бит
Метод сжатия : С потерями
Размер потока : 116 Мбайт (8%)
Default : Нет
Forced : Нет

Общее
Уникальный идентификатор : 247675731346270456637271051431774952029 (0xBA549C5A18F71D3382BD71F781A29A5D)
Полное имя : H:\ТОРРЕНТЫ\Культ(Сезон 1)\Культ(Сезон 1)E08.720p.rus.LostFilm.TV.mkv
Формат : Matroska
Версия формата : Version 2
Размер файла : 1,40 Гбайт
Продолжительность : 41 м.
Общий поток : 4811 Кбит/сек
Дата кодирования : UTC 2013-07-01 17:53:41
Программа кодирования : mkvmerge v4.2.0 ('No Talking') сборка от Jul 28 2010 18:38:23
Библиотека кодирования : libebml v1.0.0 + libmatroska v1.0.0

Видео
Идентификатор : 1
Формат : AVC
Формат/Информация : Advanced Video Codec
Профиль формата : High@L3.1
Параметр CABAC формата : Да
Параметр ReFrames формата : 4 кадра
Идентификатор кодека : V_MPEG4/ISO/AVC
Продолжительность : 41 м.
Битрейт : 4041 Кбит/сек
Ширина : 1280 пикселей
Высота : 720 пикселей
Соотношение сторон : 16:9
Режим частоты кадров : Постоянный
Частота кадров : 23,976 кадра/сек
Цветовое пространство : YUV
Субдискретизация насыщенности : 4:2:0
Битовая глубина : 8 бит
Тип развёртки : Прогрессивная
Бит/(Пиксели*Кадры) : 0.183
Размер потока : 1,15 Гбайт (82%)
Библиотека кодирования : x264 core 112 r1834 a51816a
Настройки программы : cabac=1 / ref=1 / deblock=1:0:0 / analyse=0x3:0x113 / me=hex / subme=7 / psy=1 / psy_rd=1.00:0.00 / mixed_ref=0 / me_range=16 / chroma_me=1 / trellis=1 / 8x8dct=1 / cqm=0 / deadzone=21,11 / fast_pskip=1 / chroma_qp_offset=-2 / threads=6 / sliced_threads=0 / nr=0 / decimate=1 / interlaced=0 / constrained_intra=0 / bframes=3 / b_pyramid=2 / b_adapt=1 / b_bias=0 / direct=1 / weightb=1 / open_gop=0 / weightp=2 / keyint=250 / keyint_min=25 / scenecut=40 / intra_refresh=0 / rc_lookahead=40 / rc=2pass / mbtree=1 / bitrate=4041 / ratetol=1.0 / qcomp=0.60 / qpmin=0 / qpmax=51 / qpstep=4 / cplxblur=20.0 / qblur=0.5 / ip_ratio=1.40 / aq=1:1.00
Default : Да
Forced : Нет

Аудио #1
Идентификатор : 2
Формат : AC-3
Формат/Информация : Audio Coding 3
Расширение режима : CM (complete main)
Параметр Endianness формата : Big
Идентификатор кодека : A_AC3
Продолжительность : 41 м.
Вид битрейта : Постоянный
Битрейт : 384 Кбит/сек
Каналы : 2 канала
Расположение каналов : Front: L R
Частота : 48,0 КГц
Битовая глубина : 16 бит
Метод сжатия : С потерями
Размер потока : 115 Мбайт (8%)
Default : Да
Forced : Нет

Аудио #2
Идентификатор : 3
Формат : AC-3
Формат/Информация : Audio Coding 3
Расширение режима : CM (complete main)
Параметр Endianness формата : Big
Идентификатор кодека : A_AC3
Продолжительность : 41 м.
Вид битрейта : Постоянный
Битрейт : 384 Кбит/сек
Каналы : 2 канала
Расположение каналов : Front: L R
Частота : 48,0 КГц
Битовая глубина : 16 бит
Метод сжатия : С потерями
Размер потока : 115 Мбайт (8%)
Default : Нет
Forced : Нет

Общее
Уникальный идентификатор : 188256701280226449638772984882117218580 (0x8DA0EBFC92CE105BAB2BCE0567301114)
Полное имя : H:\ТОРРЕНТЫ\Культ(Сезон 1)\Культ(Сезон 1)E09.720p.rus.LostFilm.TV.mkv
Формат : Matroska
Версия формата : Version 2
Размер файла : 1,40 Гбайт
Продолжительность : 41 м.
Общий поток : 4810 Кбит/сек
Дата кодирования : UTC 2013-07-08 13:05:53
Программа кодирования : mkvmerge v4.2.0 ('No Talking') сборка от Jul 28 2010 18:38:23
Библиотека кодирования : libebml v1.0.0 + libmatroska v1.0.0

Видео
Идентификатор : 1
Формат : AVC
Формат/Информация : Advanced Video Codec
Профиль формата : High@L3.1
Параметр CABAC формата : Да
Параметр ReFrames формата : 4 кадра
Идентификатор кодека : V_MPEG4/ISO/AVC
Продолжительность : 41 м.
Битрейт : 4041 Кбит/сек
Ширина : 1280 пикселей
Высота : 720 пикселей
Соотношение сторон : 16:9
Режим частоты кадров : Постоянный
Частота кадров : 23,976 кадра/сек
Цветовое пространство : YUV
Субдискретизация насыщенности : 4:2:0
Битовая глубина : 8 бит
Тип развёртки : Прогрессивная
Бит/(Пиксели*Кадры) : 0.183
Размер потока : 1,15 Гбайт (82%)
Библиотека кодирования : x264 core 112 r1834 a51816a
Настройки программы : cabac=1 / ref=1 / deblock=1:0:0 / analyse=0x3:0x113 / me=hex / subme=7 / psy=1 / psy_rd=1.00:0.00 / mixed_ref=0 / me_range=16 / chroma_me=1 / trellis=1 / 8x8dct=1 / cqm=0 / deadzone=21,11 / fast_pskip=1 / chroma_qp_offset=-2 / threads=6 / sliced_threads=0 / nr=0 / decimate=1 / interlaced=0 / constrained_intra=0 / bframes=3 / b_pyramid=2 / b_adapt=1 / b_bias=0 / direct=1 / weightb=1 / open_gop=0 / weightp=2 / keyint=250 / keyint_min=25 / scenecut=40 / intra_refresh=0 / rc_lookahead=40 / rc=2pass / mbtree=1 / bitrate=4041 / ratetol=1.0 / qcomp=0.60 / qpmin=0 / qpmax=51 / qpstep=4 / cplxblur=20.0 / qblur=0.5 / ip_ratio=1.40 / aq=1:1.00
Default : Да
Forced : Нет

Аудио #1
Идентификатор : 2
Формат : AC-3
Формат/Информация : Audio Coding 3
Расширение режима : CM (complete main)
Параметр Endianness формата : Big
Идентификатор кодека : A_AC3
Продолжительность : 41 м.
Вид битрейта : Постоянный
Битрейт : 384 Кбит/сек
Каналы : 2 канала
Расположение каналов : Front: L R
Частота : 48,0 КГц
Битовая глубина : 16 бит
Метод сжатия : С потерями
Размер потока : 115 Мбайт (8%)
Default : Да
Forced : Нет

Аудио #2
Идентификатор : 3
Формат : AC-3
Формат/Информация : Audio Coding 3
Расширение режима : CM (complete main)
Параметр Endianness формата : Big
Идентификатор кодека : A_AC3
Продолжительность : 41 м.
Вид битрейта : Постоянный
Битрейт : 384 Кбит/сек
Каналы : 2 канала
Расположение каналов : Front: L R
Частота : 48,0 КГц
Битовая глубина : 16 бит
Метод сжатия : С потерями
Размер потока : 115 Мбайт (8%)
Default : Нет
Forced : Нет

скриншот   скриншот   скриншот   скриншот   скриншот   скриншот   скриншот   скриншот   скриншот   скриншот  

pb.wtf



Скачать Культ через торрент http://pic.kartinco.top/images/6/zofts.jpg Скачать фильм Культ через торрент бесплантно в хорошем качестве Описание:Мистический сериал расскажет нам о ряде таинственных событий, в результате которых исчезли люди. Молодая помощница продюсера в ... 8 10 3
Info! Золотая раздача, скачанное не засчитывается.
Торрент: Зарегистрирован [2014-04-16 11:59] · скачан: 23 раз
Статус: √ проверено
Размер: 18.37 GB
Как cкачать? Как скачать Культ через торрент | qTorrent

% Раздел Тема Автор DL S | L
Зарубежные сериалы [ 3.38 GB ] Культ / The Cult / Сезон: 1 / Серии: 1-7 из ?? [2013 WEB-DLRip] diletant Скачать
1 | 0

28-11-2019 20:33  

Отключить всю рекламу на сайте

16-04-2014 12:05 Культ Скачать торрент  

Двухсотый) pb.wtf



    Дорогой пользователь! Огромная просьба, поблагодарите релизера, оцените раздачу и оставьте свои комментарий, если Вы скачали Культ через торрент бесплатно! Внесите свою лепту в развитие PiratBit!
    Комментировать посты могут только пользователи прошедшие не сложную регистрацию
    Показать сообщения:    

    Культ через торрент
    Скачать бесплатно Культ
    Культ скачать торрент
    Культ смотреть онлайн
    Cкачать фильм Культ бесплатно
    Культ скачать торрент в хорошем качестве
    Культ смотреть онлайн бесплатно в хорошем качестве


    Вы не можете начинать темы
    Вы не можете отвечать на сообщения
    Вы не можете редактировать свои сообщения
    Вы не можете удалять свои сообщения
    Вы не можете голосовать в опросах
    Вы не можете прикреплять файлы к сообщениям
    Вы можете скачивать файлы