Ссылка на приватное зеркало нашего сайта всего за 1$. Внимание количество ограничено!!!

2 сезон

iTunes

1 сезон

1

2 сезон

2 сезон

iTunes

1 сезон

RePack

30

Ultimate

ВАЖНО

ИГРА 18+

pack

RePack

MK11
pack

Забери бонус

RePack

jed

!!Акция!!

Alien_Rage

RePack

fifa19

RePack

Assassins Creed: Odyssey

RePack

NEED FOR SPEED™ PAYBACK

4 сезон

9 сезон

Бесстыжие 9 сезон

Все сериалы

все сериалы на PB.wtf

RePack

FAR CRY 5
  

Кремниевая долина / Silicon Valley / Сезон: 1 / Серии 1-4 из 8 (Майк Джадж) [2014, США, комедия, HDTVRip 720p] DVO [Кубик в Кубе] + Original pb.wtf

Кремниевая долина через торрент pb.wtf

Размер: 4.12 GB | Добавлен: 6 лет 6 мес. назад | Торрент скачан:121 раз
Скачать  

08-04-2014 21:04 Кремниевая долина Скачать торрент  

Кремниевая долина / Silicon Valley

Год выпуска: 2014
Страна: США
Жанр: комедия
Продолжительность: 00:29:48
Перевод:
|Профессиональный (двухголосый, закадровый) Кубик в Кубе|
Субтитры: английские (Eng Sub); ,

Режиссер: Майк Джадж / Mike Judge
В ролях: Аманда Крю (Monica), Aly Mawji (Aly Dutta), Джэйк Бродер (Dan Melcher), Энди Бакли (Carl Farrington), Порша Коулмэн (Mochachino), Джимми Оуянг (Jian Yang), Остин Абрамс (The Carver), Victor Achkeev (Jurgen), Джилл Е. Александр (Patrice), Бобак Бахтиари (Immedibug CEO), Шайну Бала (Yoga Master CEO), Джош Бренер (Big Head)
Описание:
Жизнь в Силиконовой долине – жестокая борьба за место под калифорнийским солнцем. Каждый здесь мечтает стать новым Джобсом. Шестеро молодых айтишников пытаются придумать прорывный стартап, который принесет им славу и деньги. Но великие изобретатели беспомощны в повседневной жизни, а толковые прагматики не могут справиться со звездной болезнью. Создатель шоу Майк Джадж, автор «Бивиса и Баттхеда», знает, как превратить эти гиковские сложности в комедию.

Рейтинг

Качество: HDTVRip 720p | Silicon.Valley.S01.720p.HDTV.DD5.1.x264-CtrlHD
Формат: MKV
Видео кодек: AVC
Аудио кодек: AC3
Видео: AVC, 1280x714 (16:9), 4541 kbps, 23,976 fps, 0,207 bpp
Аудио №1: русский / AC3 / 5.1 / 48 kHz / 384 kbps / 16 bit ||
Аудио №2: английский / AC3 / 5.1 / 48 kHz / 384 kbps / 16 bit

Оформление: Messa-fan
Работа со звуком: ЛП и Messa-fan
Релиз:
Перевод: Василий МерзляковВнимание! Присутствует нецензурная лексика!

Код:

General
Unique ID                                : 201547266151619477418493151777040366287 (0x97A0976D2394B339AA94E7CA6F3FFACF)
Complete name                            : Silicon.Valley.S01.720p.HDTV.DD5.1.CasStudio.KvK / Silicon.Valley.S01E01.720p.HDTV.DD5.1.CasStudio.KvK.mkv
Format                                   : Matroska
Format version                           : Version 4 / Version 2
File size                                : 1.13 GiB
Duration                                 : 29mn 48s
Overall bit rate                         : 5 417 Kbps
Movie name                               :  Silicon.Valley.S01E01
Encoded date                             : UTC 2014-04-08 20:00:47
Writing application                      : mkvmerge v6.8.0 ('Theme for Great Cities') 64bit built on Mar  2 2014 21:34:26
Writing library                          : libebml v1.3.0 + libmatroska v1.4.1

Video
ID                                       : 1
Format                                   : AVC
Format/Info                              : Advanced Video Codec
Format profile                           : High@L4.1
Format settings, CABAC                   : Yes
Format settings, ReFrames                : 8 frames
Codec ID                                 : V_MPEG4/ISO/AVC
Duration                                 : 29mn 48s
Bit rate                                 : 4 541 Kbps
Width                                    : 1 280 pixels
Height                                   : 714 pixels
Display aspect ratio                     : 16:9
Frame rate                               : 23.976 fps
Color space                              : YUV
Chroma subsampling                       : 4:2:0
Bit depth                                : 8 bits
Scan type                                : Progressive
Bits/(Pixel*Frame)                       : 0.207
Stream size                              : 968 MiB (84%)
Title                                    : Silicon.Valley.S01E01
Writing library                          : x264 core 142 r2389kMod 956c8d8
Encoding settings                        : cabac=1 / ref=8 / deblock=1:-3:-2 / analyse=0x3:0x133 / me=umh / subme=10 / psy=1 / fade_compensate=0.00 / psy_rd=1.10:0.10 / mixed_ref=1 / me_range=28 / chroma_me=1 / trellis=2 / 8x8dct=1 / cqm=0 / deadzone=21,11 / fast_pskip=1 / chroma_qp_offset=-3 / threads=6 / lookahead_threads=1 / sliced_threads=0 / nr=0 / decimate=1 / interlaced=0 / bluray_compat=0 / constrained_intra=0 / fgo=0 / bframes=6 / b_pyramid=2 / b_adapt=2 / b_bias=0 / direct=3 / weightb=1 / open_gop=0 / weightp=2 / keyint=250 / keyint_min=23 / scenecut=40 / intra_refresh=0 / rc=crf / mbtree=0 / crf=16.0000 / qcomp=0.60 / qpmin=0 / qpmax=69 / qpstep=4 / ip_ratio=1.40 / pb_ratio=1.30 / aq=2:1.00
Language                                 : English
Default                                  : Yes
Forced                                   : No

Audio #1
ID                                       : 2
Format                                   : AC-3
Format/Info                              : Audio Coding 3
Mode extension                           : CM (complete main)
Codec ID                                 : A_AC3
Duration                                 : 29mn 48s
Bit rate mode                            : Constant
Bit rate                                 : 384 Kbps
Channel(s)                               : 6 channels
Channel positions                        : Front: L C R, Side: L R, LFE
Sampling rate                            : 48.0 KHz
Bit depth                                : 16 bits
Compression mode                         : Lossy
Stream size                              : 81.9 MiB (7%)
Title                                    : KvK 5.1
Language                                 : Russian
Default                                  : Yes
Forced                                   : No

Audio #2
ID                                       : 3
Format                                   : AC-3
Format/Info                              : Audio Coding 3
Mode extension                           : CM (complete main)
Codec ID                                 : A_AC3
Duration                                 : 29mn 48s
Bit rate mode                            : Constant
Bit rate                                 : 384 Kbps
Channel(s)                               : 6 channels
Channel positions                        : Front: L C R, Side: L R, LFE
Sampling rate                            : 48.0 KHz
Bit depth                                : 16 bits
Compression mode                         : Lossy
Delay relative to video                  : 10ms
Stream size                              : 81.9 MiB (7%)
Title                                    : Original 5.1
Language                                 : English
Default                                  : No
Forced                                   : No

Text
ID                                       : 4
Format                                   : UTF-8
Codec ID                                 : S_TEXT/UTF8
Codec ID/Info                            : UTF-8 Plain Text
Title                                    : Eng Sub
Language                                 : English
Default                                  : No
Forced                                   : No



Внимание! Раздача ведётся путём добавления новых серий; при каждом добавлении создётся новый торрент. Чтобы начать докачку новой серии, пользователям необходимо сделать следующее:
(1) остановить скачивание,
(2) удалить старый торрент у себя из клиента (старые серии удалять не надо),
(3) скачать новый торрент и запустить его у себя в клиенте вместо старого, при этом указать клиенту путь в старую папку куда и должно происходить скачивание новых серий.
Ваш клиент при этом должен произвести хеширование (проверку) старой папки (если не производит сам - помогите ему сделать это), и будет докачивать только те серии которых у вас ещё нет. Старые серии при этом не удаляются, а продолжают раздаваться!
Eсли вы уже удалили старые серии, то предотвратить повторную закачку старых серий можно, отжав галочку в соответсвующих местах при запуске нового торрента. По возможности, желательно не удалять старые серии как можно дольше чтобы релизёр не столько продолжал раздавать старые серии, а смог сконцентрироваться на новых.

Добавлена 3 и 4 серия!

pb.wtf



Скачать Кремниевая долина через торрент http://cs540103.vk.me/c608827/v608827651/5b7d/PDAsFPcsstk.jpg Скачать фильм Кремниевая долина через торрент бесплантно в хорошем качестве Описание: Жизнь в Силиконовой долине – жестокая борьба за место под калифорнийским солнцем. Каждый здесь мечтает стать новым Джобсом. ... 10 10 11
Торрент: Зарегистрирован [2014-05-05 19:25] · скачан: 121 раз
Статус: √ проверено
Размер: 4.12 GB
Как cкачать? Как скачать Кремниевая долина через торрент | qTorrent



Последний раз редактировалось: Messa-fan (2014-05-05 19:25), всего редактировалось 1 раз

28-11-2019 20:33  

Отключить всю рекламу на сайте

16-04-2014 16:04 Кремниевая долина Скачать торрент  


Добавлена 2 серия!

pb.wtf



17-04-2014 17:40 Кремниевая долина Скачать торрент  

Когда будут следующие серии?pb.wtf



05-05-2014 19:26 Кремниевая долина Скачать торрент  


Добавлена 3 и 4 серия!

pb.wtf



05-12-2014 07:42 Кремниевая долина Скачать торрент  

Раздал бы кто ... pb.wtf



29-01-2016 07:01 Кремниевая долина Скачать торрент  

а будут ли серии с 5 по 8?pb.wtf



    Дорогой пользователь! Огромная просьба, поблагодарите релизера, оцените раздачу и оставьте свои комментарий, если Вы скачали Кремниевая долина через торрент бесплатно! Внесите свою лепту в развитие PiratBit!
    Комментировать посты могут только пользователи прошедшие не сложную регистрацию
    Показать сообщения:    

    Кремниевая долина через торрент
    Скачать бесплатно Кремниевая долина
    Кремниевая долина скачать торрент
    Кремниевая долина смотреть онлайн
    Cкачать фильм Кремниевая долина бесплатно
    Кремниевая долина скачать торрент в хорошем качестве
    Кремниевая долина смотреть онлайн бесплатно в хорошем качестве


    Вы не можете начинать темы
    Вы не можете отвечать на сообщения
    Вы не можете редактировать свои сообщения
    Вы не можете удалять свои сообщения
    Вы не можете голосовать в опросах
    Вы не можете прикреплять файлы к сообщениям
    Вы можете скачивать файлы