Всегда рабочее зеркало без VPN и Proxy просто перед .vidak.icu напиши любое слово или цифру, Пример http://sglm.vidak.icu

MVO

MVO

1 сезон

1

1 сезон

iTunes

1 сезон

13

1 сезон

Deluxe

pack

Рекомендуем

Repack

30

ВАЖНО

RePack

MK11

RePack

jed

RePack

fifa19

RePack

RDR2

RePack

NEED FOR SPEED™ PAYBACK

Кинопоиск HD

6 сезон

 Острые козырьки 6 сезон

Все сериалы

все сериалы на PB.wtf

RePack

FAR CRY 5
  
Magnet ссылка

Стокгольмская восточная / Stockholm Östra (Симон Кайзер) [2011 г., драма, HDRip, Любительский одноголосый] pb.wtf

Стокгольмская восточная через торрент pb.wtf

Размер: 1.46 GB | Добавлен: 8 лет 3 мес. назад | Торрент скачан:17 раз
Смотреть онлайн Стокгольмская восточная | Скачать    Ребята, помогите собрать деньги на оплату серверов!!!

16-04-2014 17:18 Стокгольмская восточная Скачать торрент  

Стокгольмская восточная / Stockholm Östra
Год выпуска: 2011
Страна: Швеция / Film i Väst, Filmlance International AB
Жанр: драма
Продолжительность: 01:31:23
Перевод: Любительский одноголосый (Kenum)

Режиссер: Симон Кайзер

В ролях: Астрид Ассефа, Ларс-Эрик Беренетт, Ребека Инглунд, Ульф Фриберг, Анна Годениус, Анника Халлин, Ибен Йейле, Элин Нильсион Керс, Катарина Ларсон, Анки Лиден

Описание: Трогательная история непреодолимой любви между двумя незнакомцами, связанных между собой одной трагедией, которая сказывается на их жизнях и отношениях. Когда Йохан и Анна встречаются на вокзале, связывающим столицу Стокгольм с идиллическим пригородом, где они и живут, они отправляются в опасное путешествие из страсти и лжи…

Качество: HDRip
Формат: AVI
Видео кодек: XviD
Аудио кодек: AC3
Видео: 720x384 (1.88:1), 25 fps, XviD build 50 ~1835 kbps avg, 0.27 bit/pixel
Аудио: 48 kHz, AC3 Dolby Digital, 3/2 (L,C,R,l,r) + LFE ch, ~448 kbps


Общее
Полное имя : D:\Stockholm.Ost.2011.HDRip.avi
Формат : AVI
Формат/Информация : Audio Video Interleave
Размер файла : 1,46 Гбайт
Продолжительность : 1 ч. 31 м.
Общий поток : 2293 Кбит/сек
Название фильма : Stockholm.Ost.2011.HDRip,avi
Программа кодирования : VirtualDubMod 1.5.10.3 | www.virtualdub-fr.org || (build 2550/release)

Видео
Идентификатор : 0
Формат : MPEG-4 Visual
Профиль формата : Advanced [email protected]
Параметр BVOP формата : 2
Параметр QPel формата : Нет
Параметр GMC формата : Без точки перехода
Параметр матрицы формата : Default (H.263)
Идентификатор кодека : XVID
Идентификатор кодека/Подсказка : XviD
Продолжительность : 1 ч. 31 м.
Битрейт : 1836 Кбит/сек
Ширина : 720 пикселей
Высота : 384 пикселя
Соотношение сторон : 1,85:1
Частота кадров : 25,000 кадров/сек
Цветовое пространство : YUV
Субдискретизация насыщенности : 4:2:0
Битовая глубина : 8 бит
Тип развёртки : Прогрессивная
Метод сжатия : С потерями
Бит/(Пиксели*Кадры) : 0.266
Размер потока : 1,17 Гбайт (80%)
Библиотека кодирования : XviD 1.2.1 (UTC 2008-12-04)

Аудио
Идентификатор : 1
Формат : AC-3
Формат/Информация : Audio Coding 3
Расширение режима : CM (complete main)
Параметр Endianness формата : Big
Идентификатор кодека : 2000
Продолжительность : 1 ч. 31 м.
Вид битрейта : Постоянный
Битрейт : 448 Кбит/сек
Каналы : 6 каналов
Расположение каналов : Front: L C R, Side: L R, LFE
Частота : 48,0 КГц
Битовая глубина : 16 бит
Метод сжатия : С потерями
Размер потока : 293 Мбайт (20%)
Выравнивание : Разделение по промежуткам
Продолжительность промежутка : 40 мс. (1,00 видеокадр)
Время предзагрузки промежутка : 500 мс.

pb.wtf



Скачать Стокгольмская восточная через торрент https://pic1.kartinco.top/images/61/px235.jpg Скачать, смотреть онлайн Стокгольмская восточная бесплантно в хорошем качестве Описание: Трогательная история непреодолимой любви между двумя незнакомцами, связанных между собой одной трагедией, которая сказывается на ... 5 10 1
Торрент: Зарегистрирован [2014-04-16 17:18] · скачан: 17 раз
Статус: √ проверено
Размер: 1.46 GB
Как cкачать? Как скачать Стокгольмская восточная через торрент | UTorrent

28-11-2019 20:33  

Отключить вcю реклaмy на сайте

    Дорогой пользователь! Огромная просьба, поблагодарите релизера, оцените раздачу и оставьте свои комментарий, если Вы скачали Стокгольмская восточная через торрент бесплатно!
    Комментировать посты могут только пользователи прошедшие не сложную регистрацию
    Показать сообщения:    

    Стокгольмская восточная через торрент
    Скачать бесплатно Стокгольмская восточная
    Стокгольмская восточная скачать торрент
    Стокгольмская восточная смотреть онлайн
    Cкачать фильм Стокгольмская восточная бесплатно
    Стокгольмская восточная скачать торрент в хорошем качестве
    Стокгольмская восточная смотреть онлайн бесплатно в хорошем качестве


    Вы не можете начинать темы
    Вы не можете отвечать на сообщения
    Вы не можете редактировать свои сообщения
    Вы не можете удалять свои сообщения
    Вы не можете голосовать в опросах
    Вы не можете прикреплять файлы к сообщениям
    Вы можете скачивать файлы