Ссылка на приватное зеркало нашего сайта всего за 1$. Внимание количество ограничено!!!

2 сезон

iTunes

1 сезон

1

iTunes

iTunes

iTunes

1 сезон

RePack

30

ИГРА 18+

pack

ВАЖНО

!!Акция!!

Alien_RageХит недели

RePack

MK11
pack

Забери бонус

RePack

jed

!!Акция!!

Alien_Rage

RePack

fifa19

RePack

Assassins Creed: Odyssey

RePack

NEED FOR SPEED™ PAYBACK

4 сезон

9 сезон

Бесстыжие 9 сезон

Все сериалы

все сериалы на PB.wtf

RePack

FAR CRY 5
  

Обитель зла 4: Жизнь после смерти / Resident Evil: Afterlife (Пол У. С. Андерсон / Paul W.S. Anderson) [2010, ужасы, фантастика, боевик, триллер, HDRip] [VO] (Александр Дасевич, NovaFilm) pb.wtf

Обитель зла 4: Жизнь после смерти через торрент pb.wtf

Размер: 1.46 GB | Добавлен: 6 лет 6 мес. назад | Торрент скачан:167 раз
Скачать  

16-04-2014 20:45 Обитель зла 4: Жизнь после смерти Скачать торрент  

Обитель зла 4: Жизнь после смерти / Resident Evil: Afterlife
Год выпуска: 2010
Страна: Германия, Франция, Великобритания
Жанр: ужасы, фантастика, боевик, триллер
Продолжительность: 01:36:52
Перевод: Профессиональный (одноголосый, закадровый) [Александр Дасевич, NovaFilm]

Cубтитры: нет
Режиссер: Пол У. С. Андерсон / Paul W.S. Anderson

В ролях: Милла Йовович, Эли Лартер, Ким Коутс, Шоун Робертс, Серджо Перис-Менчета, Спенсер Лок, Борис Коджо, Вентворт Миллер, Сиенна Гиллори, Кейси Барнфилд

Описание: Элис продолжает свой путь в мире, поражённом вирусной инфекцией, превращающей людей в нежить. Героиня ищет оставшихся в живых, чтобы вывести их в безопасное место. Её смертельная битва с корпорацией Амбрелла выходит на новый уровень, когда она вдруг получает неожиданную помощь от старого друга. Он обещает привести Элис в безопасную зону в Лос-Анджелесе, но как только они попадают в город, то видят тысячи и тысячи заражённых и оказываются в смертельной ловушке


Качество видео: HDRip
Формат видео: AVI
Видео кодек: XviD
Аудио кодек: AC3
Видео: 720x304 (2.37:1), 23.976 fps, XviD build 50 ~1701 kbps avg, 0.32 bit/pixel
Аудио: 48 kHz, AC3 Dolby Digital, 3/2 (L,C,R,l,r) + LFE ch, ~448 kbps


Автор рипа: avatar-aang
General
Complete name : C:\zlo-4-1.45.avi
Format : AVI
Format/Info : Audio Video Interleave
File size : 1.46 GiB
Duration : 1h 36mn
Overall bit rate : 2 159 Kbps
Writing application : VirtualDubMod 1.5.10.2 (build 2540/release)
Writing library : VirtualDubMod build 2540/release
Video
ID : 0
Format : MPEG-4 Visual
Format profile : Advanced Simple@L5
Format settings, BVOP : 1
Format settings, QPel : No
Format settings, GMC : No warppoints
Format settings, Matrix : Custom
Codec ID : XVID
Codec ID/Hint : XviD
Duration : 1h 36mn
Bit rate : 1 701 Kbps
Width : 720 pixels
Height : 304 pixels
Display aspect ratio : 2.35:1
Frame rate : 23.976 fps
Color space : YUV
Chroma subsampling : 4:2:0
Bit depth : 8 bits
Scan type : Progressive
Compression mode : Lossy
Bits/(Pixel*Frame) : 0.324
Stream size : 1.15 GiB (79%)
Writing library : XviD 1.2.1 (UTC 2008-12-04)
Audio
ID : 1
Format : AC-3
Format/Info : Audio Coding 3
Mode extension : CM (complete main)
Codec ID : 2000
Duration : 1h 36mn
Bit rate mode : Constant
Bit rate : 448 Kbps
Channel(s) : 6 channels
Channel positions : Front: L C R, Side: L R, LFE
Sampling rate : 48.0 KHz
Bit depth : 16 bits
Compression mode : Lossy
Stream size : 310 MiB (21%)
Alignment : Split accross interleaves
Interleave, duration : 42 ms (1.00 video frame)
Interleave, preload duration : 500 ms
скриншот   скриншот   скриншот   скриншот   скриншот   скриншот   скриншот   скриншот   скриншот  
pb.wtf



Скачать Обитель зла 4: Жизнь после смерти через торрент http://5.firepic.org/5/images/2014-04/15/yalmwvuhq296.png Скачать фильм Обитель зла 4: Жизнь после смерти через торрент бесплантно в хорошем качестве Описание: Элис продолжает свой путь в мире, поражённом вирусной инфекцией, превращающей людей в нежить. Героиня ищет оставшихся в живых, ... 7.8 10 4
Info! Золотая раздача, скачанное не засчитывается.
Торрент: Зарегистрирован [2014-04-16 20:45] · скачан: 167 раз
Статус: √ проверено
Размер: 1.46 GB
Как cкачать? Как скачать Обитель зла 4: Жизнь после смерти через торрент | qTorrent

% Раздел Тема Автор DL S | L
Ultra HD (UHD: 2K, 4K, 8K) — видео сверхвысокой чёткости [ 26.07 GB ] Обитель зла 4: Жизнь после смерти / Resident Evil: Afterlife [2010 UHD WEBRip 2160p] - [] sheker187 Скачать
1 | 0
Фильмы 2010 [ 1.46 GB ] Обитель зла 4: Жизнь после смерти / Resident Evil: Afterlife [2010 HDRip by Dean24] Dean24 Скачать
1 | 0
Фильмы [HD 720p, 1080p] (Хороший звук DUB, MVO) [ 8.24 GB ] Обитель зла 4: Жизнь после смерти / Resident Evil: Afterlife [2010 BDRip ] -LoRDaN- Скачать
1 | 0
3D Фильмы [ 6.13 GB ] Обитель зла 4: Жизнь после смерти 3Д / Resident Evil: Afterlife 3D [2010 BDRip 1080p] Anaglyph / Анаглиф BAM_Margera Скачать
1 | 0
3D Фильмы [ 4.15 GB ] Обитель зла 4: Жизнь после смерти 3Д / Resident Evil: Afterlife 3D 2010 BDrip 720p med'gold OverUnder slaventi-69 Скачать
1 | 0
3D Фильмы [ 5.94 GB ] Обитель зла 4: Жизнь после смерти 3Д / Resident Evil: Afterlife 3D [2010 BDRip 1080p DUB + Оригинал] gus82 Скачать
1 | 0
Фильмы 2010 [ 1.75 GB ] Обитель зла 4: Жизнь после смерти / Resident Evil: Afterlife [2010 DVDRip] aspace Скачать
1 | 0

28-11-2019 20:33  

Отключить всю рекламу на сайте

17-04-2014 11:05 Обитель зла 4: Жизнь после смерти Скачать торрент  

Серёжк@
спасибо за золотишко pb.wtf



17-04-2014 11:18 Обитель зла 4: Жизнь после смерти Скачать торрент  

Что-то я не понял: 2010 год выпуска, это после части с пустыней, но до побега с подземного испытательного полигона на Аляске вместе с Лионом и Адой Вонг?pb.wtf



17-04-2014 12:35 Обитель зла 4: Жизнь после смерти Скачать торрент  

Gorgoneus писал(а):

Что-то я не понял: 2010 год выпуска, это после части с пустыней, но до побега с подземного испытательного полигона на Аляске вместе с Лионом и Адой Вонг?

совершенно точноpb.wtf



17-04-2014 20:36 Обитель зла 4: Жизнь после смерти Скачать торрент  

Ясно, спасибо, я уже и забыл, что там ещё одна часть была.pb.wtf



30-01-2016 16:47 Обитель зла 4: Жизнь после смерти Скачать торрент  

Дайте скорости народpb.wtf



    Дорогой пользователь! Огромная просьба, поблагодарите релизера, оцените раздачу и оставьте свои комментарий, если Вы скачали Обитель зла 4: Жизнь после смерти через торрент бесплатно! Внесите свою лепту в развитие PiratBit!
    Комментировать посты могут только пользователи прошедшие не сложную регистрацию
    Показать сообщения:    

    Обитель зла 4: Жизнь после смерти через торрент
    Скачать бесплатно Обитель зла 4: Жизнь после смерти
    Обитель зла 4: Жизнь после смерти скачать торрент
    Обитель зла 4: Жизнь после смерти смотреть онлайн
    Cкачать фильм Обитель зла 4: Жизнь после смерти бесплатно
    Обитель зла 4: Жизнь после смерти скачать торрент в хорошем качестве
    Обитель зла 4: Жизнь после смерти смотреть онлайн бесплатно в хорошем качестве


    Вы не можете начинать темы
    Вы не можете отвечать на сообщения
    Вы не можете редактировать свои сообщения
    Вы не можете удалять свои сообщения
    Вы не можете голосовать в опросах
    Вы не можете прикреплять файлы к сообщениям
    Вы можете скачивать файлы