Ссылка на приватное зеркало всего за 1$. Внимание количество ограничено!!!

OK

1+1

iTunes

мы

OK

1

WEB-DLRip

Джокер

Пифагор

Ведьмак / The Witcher сериал

iTunes

ПШазам

ОК

Оно 2

iTunes

30
pack

Вам бонус

ВАЖНО

!!Акция!!

Alien_RageХит недели

RePack

Resident Evil 21

ИГРА 18+

pack

RePack

jed

RePack

fifa19

RePack

Assassins Creed: Odyssey

RePack

NEED FOR SPEED™ PAYBACK

4 сезон

9 сезон

Бесстыжие 9 сезон

Все сериалы

все сериалы на PB.wtf

RePack

FAR CRY 5
  

Предельная глубина / Сезон: 1 / Серии 1-4 из 4 (Константин Максимов) [2014, Россия, Мелодрама, Приключения, WEB-DLRip] pb.wtf

Предельная глубина через торрент pb.wtf

Размер: 2.08 GB | Добавлен: 5 лет 9 мес. назад | Торрент скачан:523 раза
Скачать  

17-04-2014 03:55 Предельная глубина Скачать торрент  

Предельная глубина
Год выпуска: 2014
Страна: Россия
Жанр: Мелодрама, Приключения
Продолжительность: 4х~43мин
Перевод: Не требуется
Субтитры: Нет
Режиссер: Константин Максимов
В ролях:
Антон Батырев, Светлана Устинова, Максим Онищенко, Юрий Лагута и др.
Описание:
Главный герой получает выгодное предложение. Его таланты дайвера необходимы для того, чтобы достать ценный сейф с затонувшего много лет назад судна. Вот только возникает проблема с нанимателями, одна из которых когда-то была самым близким человеком для ныряльщика. Большие деньги, старые страсти и уединенные морские просторы - убийственный коктейль, который угрожает жизни всех на борту яхты.
Качество: WEB-DLRip
Формат: AVI
Видео кодек: XviD
Аудио кодек: AC3
Видео: 1496 Кбит/сек, 720*400 (16:9), в 25,000 кадров/сек, MPEG-4 Visual (XviD)
Аудио №1: Русский 192 Кбит/сек, 44,1 КГц, 16 бит, 2 канала, AC-3
Общее
Кол-во : 279
Кол-во потоков такого типа : 1
Тип потока : General
Тип потока : Общее
Идентификатор типа потока : 0
Inform : AVI: 550 Мбайт, 43 м.
Кол-во видеопотоков : 1
Кол-во аудиопотоков : 1
Video_Format_List : MPEG-4 Visual
Video_Format_WithHint_List : MPEG-4 Visual (XviD)
Видеокодеки : XviD
Audio_Format_List : AC-3
Audio_Format_WithHint_List : AC-3
Аудиокодеки : AC3
Полное имя : D:\Фильмы\Предельная глубина\Предельная глубина1.avi
Имя папки : D:\Фильмы\Предельная глубина
Имя файла : Предельная глубина1
Расширение : avi
Формат : AVI
Формат : AVI
Формат/Информация : Audio Video Interleave
Формат/Используется в : avi
Коммерческое название : AVI
Интернет-тип носителя : video/vnd.avi
Чередующаяся : Yes
Кодек : AVI
Кодек : AVI
Кодек/Информация : Audio Video Interleave
Кодек/Используется в : avi
Размер файла : 576430080
Размер файла : 550 Мбайт
Размер файла : 550 Мбайт
Размер файла : 550 Мбайт
Размер файла : 550 Мбайт
Размер файла : 549,7 Мбайт
Продолжительность : 2616440
Продолжительность : 43 м.
Продолжительность : 43 м. 36 с. 440 мс.
Продолжительность : 43 м.
Продолжительность : 00:43:36.440
Общий поток : 1762487
Общий поток : 1762 Кбит/сек
Размер потока : 3183568
Размер потока : 3,04 Мбайт (1%)
Размер потока : 3 Мбайт
Размер потока : 3,0 Мбайт
Размер потока : 3,04 Мбайт
Размер потока : 3,036 Мбайт
Размер потока : 3,04 Мбайт (1%)
Пропорции потока : 0.00552
Дата файла : UTC 2014-04-17 02:28:54.727
Дата файла (местная) : 2014-04-17 09:28:54.727
Дата изменения файла : UTC 2014-04-17 03:48:45.528
Дата изменения файла (местная) : 2014-04-17 10:48:45.528
Программа кодирования : VirtualDubMod 1.5.10.3 | www.virtualdub-fr.org || (build 2550/release)
Библиотека кодирования : VirtualDubMod build 2550/release
Библиотека кодирования : VirtualDubMod build 2550/release

Видео
Кол-во : 248
Кол-во потоков такого типа : 1
Тип потока : Video
Тип потока : Видео
Идентификатор типа потока : 0
Inform : 1561 Кбит/сек, 720*400 (16:9), в 25,000 кадров/сек, MPEG-4 Visual (XviD) (Advanced Simple@L5) (BVOP1 / Custom Matrix)
Идентификатор : 0
Идентификатор : 0
Формат : MPEG-4 Visual
Коммерческое название : MPEG-4 Visual
Профиль формата : Advanced Simple@L5
Настройки формата : BVOP1 / Custom Matrix
Параметр BVOP формата : 1
Параметр BVOP формата : 1
Параметр QPel формата : No
Параметр QPel формата : Нет
Параметр GMC формата : 0
Параметр GMC формата : Без точки перехода
Параметр матрицы формата : Custom
Параметр матрицы формата : Выборочная
Format_Settings_Matrix_Data : 080A0A0B0B0B0B0B0B0B0C0C0C0C0C0D0D0D0D0D0D0E0E0E0E0E0E0E10101010101010101111121212111113141515141317181918171E20201E282B28353546 / 101010101010101010101010101010121212121212141414141414141616161616161616181819191918181B1C1D1D1C1B20212221202A2D2D2A383C384A4A62
Интернет-тип носителя : video/MP4V-ES
Идентификатор кодека : XVID
Идентификатор кодека/Подсказка : XviD
Идентификатор кодека/Ссылка : http://mediaarea.net/XVID
Кодек : XVID
Кодек : XviD
Кодек/Семейство : MPEG-4V
Кодек/Информация : XviD project
Кодек/Ссылка : http://www.xvid.org/Downloads.15.0.html
Кодек/CC : XVID
Профиль кодека : Advanced Simple@L5
Настройки кодека : BVOP / Custom Matrix
Параметр пакетного потока данных кодека : No
Параметр BVOP кодека : Yes
Параметр QPel кодека : No
Параметр GMC кодека : 0
Параметр GMC кодека : Без точки перехода
Параметр матрицы кодека : Custom
Продолжительность : 2616440
Продолжительность : 43 м.
Продолжительность : 43 м. 36 с. 440 мс.
Продолжительность : 43 м.
Продолжительность : 00:43:36.440
Битрейт : 1560754
Битрейт : 1561 Кбит/сек
Ширина : 720
Ширина : 720 пикселей
Высота : 400
Высота : 400 пикселей
Пропорции пикселя : 1.000
Соотношение сторон : 1.800
Соотношение сторон : 16:9
Частота кадров : 25.000
Частота кадров : 25,000 кадров/сек
Счётчик кадров : 65411
Разрешение : 8
Разрешение : 8 бит
Колориметрия : 4:2:0
Цветовое пространство : YUV
Субдискретизация насыщенности : 4:2:0
Битовая глубина : 8
Битовая глубина : 8 бит
Тип развёртки : Progressive
Тип развёртки : Прогрессивная
Переплетение : PPF
Переплетение : Прогрессивная
Метод сжатия : Lossy
Метод сжатия : С потерями
Бит/(Пиксели*Кадры) : 0.217
Задержка : 0
Задержка : 00:00:00.000
Размер потока : 510452326
Размер потока : 487 Мбайт (89%)
Размер потока : 487 Мбайт
Размер потока : 487 Мбайт
Размер потока : 487 Мбайт
Размер потока : 486,8 Мбайт
Размер потока : 487 Мбайт (89%)
Пропорции потока : 0.88554
Библиотека кодирования : XviD0050
Библиотека кодирования : XviD 1.2.1 (UTC 2008-12-04)
Библиотека кодирования/Имя : XviD
Библиотека кодирования/Version : 1.2.1
Библиотека кодирования/Дата : UTC 2008-12-04

Аудио
Кол-во : 228
Кол-во потоков такого типа : 1
Тип потока : Audio
Тип потока : Аудио
Идентификатор типа потока : 0
Inform : 192 Кбит/сек, 44,1 КГц, 16 бит, 2 канала, AC-3
Идентификатор : 1
Идентификатор : 1
Формат : AC-3
Формат/Информация : Audio Coding 3
Коммерческое название : AC-3
Расширение режима : CM (complete main)
Параметр Endianness формата : Big
Идентификатор кодека : 2000
Кодек : AC3
Кодек : AC3
Кодек/Семейство : AC3
Кодек/Информация : Dolby AC3
Кодек/CC : 2000
Продолжительность : 2616425
Продолжительность : 43 м.
Продолжительность : 43 м. 36 с. 425 мс.
Продолжительность : 43 м.
Продолжительность : 00:43:36.425
Вид битрейта : CBR
Вид битрейта : Постоянный
Битрейт : 192000
Битрейт : 192 Кбит/сек
Каналы : 2
Каналы : 2 канала
Расположение каналов : Front: L R
Расположение каналов : 2/0/0
Частота : 44100
Частота : 44,1 КГц
Количество образцов : 115384343
Разрешение : 16
Разрешение : 16 бит
Битовая глубина : 16
Битовая глубина : 16 бит
Метод сжатия : Lossy
Метод сжатия : С потерями
Задержка : 0
Задержка : 00:00:00.000
Задержка в оригинале : Stream
Задержка в оригинале : 'Сырой' поток
Задержка видео : 0
Задержка видео : 0
Размер потока : 62794186
Размер потока : 59,9 Мбайт (11%)
Размер потока : 60 Мбайт
Размер потока : 60 Мбайт
Размер потока : 59,9 Мбайт
Размер потока : 59,89 Мбайт
Размер потока : 59,9 Мбайт (11%)
Пропорции потока : 0.10894
Выравнивание : Split
Выравнивание : Разделение по промежуткам
Продолжительность промежутка : 1.00
Продолжительность промежутка : 40
Продолжительность промежутка : 40 мс. (1,00 видеокадр)
Время предзагрузки промежутка : 500
Время предзагрузки промежутка : 500 мс.
dsurmod : 0
dialnorm : -31
dialnorm/String : -31 dB
bsid : 8
dialnorm_Average : -31
dialnorm_Average/String : -31 dB
dialnorm_Minimum : -31
dialnorm_Minimum/String : -31 dB
dialnorm_Maximum : -31
dialnorm_Maximum/String : -31 dB
dialnorm_Count : 357



Общее
Полное имя : D:\Фильмы\Предельная глубина\Предельная глубина2.avi
Формат : AVI
Формат/Информация : Audio Video Interleave
Размер файла : 527 Мбайт
Продолжительность : 43 м.
Общий поток : 1699 Кбит/сек
Программа кодирования : VirtualDubMod 1.5.10.3 | www.virtualdub-fr.org || (build 2550/release)
Библиотека кодирования : VirtualDubMod build 2550/release

Видео
Идентификатор : 0
Формат : MPEG-4 Visual
Профиль формата : Advanced Simple@L5
Параметр BVOP формата : 2
Параметр QPel формата : Нет
Параметр GMC формата : Без точки перехода
Параметр матрицы формата : Default (MPEG)
Идентификатор кодека : XVID
Идентификатор кодека/Подсказка : XviD
Продолжительность : 43 м.
Битрейт : 1497 Кбит/сек
Ширина : 720 пикселей
Высота : 400 пикселей
Соотношение сторон : 16:9
Частота кадров : 25,000 кадров/сек
Цветовое пространство : YUV
Субдискретизация насыщенности : 4:2:0
Битовая глубина : 8 бит
Тип развёртки : Прогрессивная
Метод сжатия : С потерями
Бит/(Пиксели*Кадры) : 0.208
Размер потока : 464 Мбайт (88%)
Библиотека кодирования : XviD 1.2.1 (UTC 2008-12-04)

Аудио
Идентификатор : 1
Формат : AC-3
Формат/Информация : Audio Coding 3
Расширение режима : CM (complete main)
Параметр Endianness формата : Big
Идентификатор кодека : 2000
Продолжительность : 43 м.
Вид битрейта : Постоянный
Битрейт : 192 Кбит/сек
Каналы : 2 канала
Расположение каналов : Front: L R
Частота : 44,1 КГц
Битовая глубина : 16 бит
Метод сжатия : С потерями
Размер потока : 59,5 Мбайт (11%)
Выравнивание : Разделение по промежуткам
Продолжительность промежутка : 40 мс. (1,00 видеокадр)
Время предзагрузки промежутка : 500 мс.

Общее
Полное имя : D:\Фильмы\Предельная глубина\Предельная глубина3.avi
Формат : AVI
Формат/Информация : Audio Video Interleave
Размер файла : 526 Мбайт
Продолжительность : 43 м.
Общий поток : 1693 Кбит/сек
Программа кодирования : VirtualDubMod 1.5.10.3 | www.virtualdub-fr.org || (build 2550/release)
Библиотека кодирования : VirtualDubMod build 2550/release

Видео
Идентификатор : 0
Формат : MPEG-4 Visual
Профиль формата : Advanced Simple@L5
Параметр BVOP формата : 2
Параметр QPel формата : Нет
Параметр GMC формата : Без точки перехода
Параметр матрицы формата : Default (MPEG)
Идентификатор кодека : XVID
Идентификатор кодека/Подсказка : XviD
Продолжительность : 43 м.
Битрейт : 1492 Кбит/сек
Ширина : 720 пикселей
Высота : 400 пикселей
Соотношение сторон : 16:9
Частота кадров : 25,000 кадров/сек
Цветовое пространство : YUV
Субдискретизация насыщенности : 4:2:0
Битовая глубина : 8 бит
Тип развёртки : Прогрессивная
Метод сжатия : С потерями
Бит/(Пиксели*Кадры) : 0.207
Размер потока : 463 Мбайт (88%)
Библиотека кодирования : XviD 1.2.1 (UTC 2008-12-04)

Аудио
Идентификатор : 1
Формат : AC-3
Формат/Информация : Audio Coding 3
Расширение режима : CM (complete main)
Параметр Endianness формата : Big
Идентификатор кодека : 2000
Продолжительность : 43 м.
Вид битрейта : Постоянный
Битрейт : 192 Кбит/сек
Каналы : 2 канала
Расположение каналов : Front: L R
Частота : 44,1 КГц
Битовая глубина : 16 бит
Метод сжатия : С потерями
Размер потока : 59,6 Мбайт (11%)
Выравнивание : Разделение по промежуткам
Продолжительность промежутка : 40 мс. (1,00 видеокадр)
Время предзагрузки промежутка : 500 мс.

Общее
Полное имя : D:\Фильмы\Предельная глубина\Предельная глубина4.avi
Формат : AVI
Формат/Информация : Audio Video Interleave
Размер файла : 527 Мбайт
Продолжительность : 43 м.
Общий поток : 1697 Кбит/сек
Программа кодирования : VirtualDubMod 1.5.10.3 | www.virtualdub-fr.org || (build 2550/release)
Библиотека кодирования : VirtualDubMod build 2550/release

Видео
Идентификатор : 0
Формат : MPEG-4 Visual
Профиль формата : Advanced Simple@L5
Параметр BVOP формата : 2
Параметр QPel формата : Нет
Параметр GMC формата : Без точки перехода
Параметр матрицы формата : Default (MPEG)
Идентификатор кодека : XVID
Идентификатор кодека/Подсказка : XviD
Продолжительность : 43 м.
Битрейт : 1496 Кбит/сек
Ширина : 720 пикселей
Высота : 400 пикселей
Соотношение сторон : 16:9
Частота кадров : 25,000 кадров/сек
Цветовое пространство : YUV
Субдискретизация насыщенности : 4:2:0
Битовая глубина : 8 бит
Тип развёртки : Прогрессивная
Метод сжатия : С потерями
Бит/(Пиксели*Кадры) : 0.208
Размер потока : 464 Мбайт (88%)
Библиотека кодирования : XviD 1.2.1 (UTC 2008-12-04)

Аудио
Идентификатор : 1
Формат : AC-3
Формат/Информация : Audio Coding 3
Расширение режима : CM (complete main)
Параметр Endianness формата : Big
Идентификатор кодека : 2000
Продолжительность : 43 м.
Вид битрейта : Постоянный
Битрейт : 192 Кбит/сек
Каналы : 2 канала
Расположение каналов : Front: L R
Частота : 44,1 КГц
Битовая глубина : 16 бит
Метод сжатия : С потерями
Размер потока : 59,6 Мбайт (11%)
Выравнивание : Разделение по промежуткам
Продолжительность промежутка : 40 мс. (1,00 видеокадр)
Время предзагрузки промежутка : 500 мс.

скриншот   скриншот   скриншот   скриншот   скриншот   скриншот   скриншот   скриншот   скриншот   скриншот  

pb.wtf



Скачать Предельная глубина через торрент http://pic.kartinco.top/images/6/9wgad.jpg Скачать фильм Предельная глубина через торрент бесплантно в хорошем качестве Описание: Главный герой получает выгодное предложение. Его таланты дайвера необходимы для того, чтобы достать ценный сейф с затонувшего ... 9.1 10 23
Info! Золотая раздача, скачанное не засчитывается.
Торрент: Зарегистрирован [2014-04-17 03:55] · скачан: 523 раз
Статус: √ проверено
Размер: 2.08 GB
Как cкачать? Как скачать Предельная глубина через торрент | qTorrent

28-11-2019 20:33  

Отключить всю рекламу на сайте

17-04-2014 16:52 Предельная глубина Скачать торрент  

Как кинцоpb.wtf



19-04-2014 15:40 Предельная глубина Скачать торрент  

nikeler писал(а):

Как кинцо

гавницо редкостноеpb.wtf



    Дорогой пользователь! Огромная просьба, поблагодарите релизера, оцените раздачу и оставьте свои комментарий, если Вы скачали Предельная глубина через торрент бесплатно! Внесите свою лепту в развитие PiratBit!
    Комментировать посты могут только пользователи прошедшие не сложную регистрацию
    Показать сообщения:    

    Предельная глубина через торрент
    Скачать бесплатно Предельная глубина
    Предельная глубина скачать торрент
    Предельная глубина смотреть онлайн
    Cкачать фильм Предельная глубина бесплатно
    Предельная глубина скачать торрент в хорошем качестве
    Предельная глубина смотреть онлайн бесплатно в хорошем качестве


    Вы не можете начинать темы
    Вы не можете отвечать на сообщения
    Вы не можете редактировать свои сообщения
    Вы не можете удалять свои сообщения
    Вы не можете голосовать в опросах
    Вы не можете прикреплять файлы к сообщениям
    Вы можете скачивать файлы