Ссылка на приватное зеркало всего за 1$. Внимание количество ограничено!!!

iTunes

iTunes

iTunes

1

iTunes

iTunes

iTunes

iTunes

iTunes

30
pack

$ от Little Big

ВАЖНО

!!Акция!!

Alien_RageХит недели

RePack

Resident Evil 21

ИГРА 18+

pack

RePack

jed

!!Акция!!

Alien_Rage

RePack

fifa19

RePack

Assassins Creed: Odyssey

RePack

NEED FOR SPEED™ PAYBACK

4 сезон

9 сезон

Бесстыжие 9 сезон

Все сериалы

все сериалы на PB.wtf

RePack

FAR CRY 5
  

Вас не догонят / Lost and Delirious (Леа Пул) [2001 г., драма, мелодрама, WEB-DL 720p, MVO, VO] pb.wtf

Вас не догонят через торрент pb.wtf

Размер: 3.57 GB | Добавлен: 6 лет 2 мес. назад | Торрент скачан:45 раз
Скачать  

17-04-2014 06:21 Вас не догонят Скачать торрент  

Вас не догонят / Lost and Delirious

Год выпуска: 2001
Страна: Канада
Жанр: драма, мелодрама
Продолжительность: 01:43:20
Перевод: Профессиональный многоголосый + Одноголосый закадровый
Субтитры: Russian, English (SDH)

Режиссер: Леа Пул
Продюссер: Грег Дамметт, Луи Лавердье, Лоррэйн Ричард
Сценарий: Джудит Томпсон, Сьюзен Суон
Бюджет: $307 233
Премьера в мире: 21 января 2001

IMDB 7.00 (14 328)


В ролях: Пайпер Перабо, Джессика Паре, Миша Бартон, Джеки Барроуз, Мими Кузык, Грэм Грин, Эмили ВанКэмп, Эми Стюарт, Каролин Давернас, Люк Кирби

Описание: Подруги. Соседки по комнате. Влюбленные. В дорогом частном колледже, затерянном в густом лесу, шестнадцатилетних воспитанниц учат всему: от иностранных языков до фехтования. Единственное, чему невозможно научить — как скрыть первое чувство любви, если оно направлено на твою соседку по комнате. Как проявить это запретное чувство, чтобы не стать изгоем, чтобы добиться того же в ответ...

Качество: WEB-DL 720p
Формат: MKV
Видео кодек: AVC
Аудио кодек: AC3
Видео: 1280x718 at 23.976 fps, MPEG-4 AVC, ~3826 kbps avg
Аудио#1: Russian: 48 kHz, AC3, 2/0 (L,R) ch, ~192.00 kbps avg |Многоголосый закадровый|
Аудио#2: Russian: 48 kHz, AC3, 3/2 (L,C,R,l,r) + LFE ch, ~448.00 kbps avg |Одноголосый закадровый, М. Иванов|
Аудио#3: English: 48 kHz, АC3, 3/2 (L,C,R,l,r) + LFE ch, ~384.00 avg |Оригинал|
General
Unique ID : 202566288038696112618733112960053377025 (0x9864D9159769B1829EC83FFA019F7801)
Complete name : /home/sb753/files/Lost.and.Delirious.2001.720p.WEB-DL.2xRus.Eng.HDCLUB.mkv
Format : Matroska
Format version : Version 4 / Version 2
File size : 3.57 GiB
Duration : 1h 43mn
Overall bit rate : 4 939 Kbps
Movie name : Release for HDCLUB by |??| ?? |Alexandr 80| ? | ? |??|
Encoded date : UTC 2014-04-16 00:52:09
Writing application : mkvmerge v6.8.0 ('Theme for Great Cities') 32bit built on Mar 2 2014 21:27:07
Writing library : libebml v1.3.0 + libmatroska v1.4.1

Video
ID : 1
Format : AVC
Format/Info : Advanced Video Codec
Format profile : High@L3.1
Format settings, CABAC : No
Format settings, ReFrames : 2 frames
Codec ID : V_MPEG4/ISO/AVC
Duration : 1h 43mn
Bit rate : 3 817 Kbps
Width : 1 280 pixels
Height : 718 pixels
Display aspect ratio : 16:9
Frame rate : 23.976 fps
Color space : YUV
Chroma subsampling : 4:2:0
Bit depth : 8 bits
Scan type : Progressive
Bits/(Pixel*Frame) : 0.173
Stream size : 2.76 GiB (77%)
Title : Lost and Delirious (2001)
Language : English
Default : Yes
Forced : No
Color primaries : BT.709-5, BT.1361, IEC 61966-2-4, SMPTE RP177
Transfer characteristics : BT.709-5, BT.1361
Matrix coefficients : BT.709-5, BT.1361, IEC 61966-2-4 709, SMPTE RP177

Audio #1
ID : 2
Format : AC-3
Format/Info : Audio Coding 3
Mode extension : CM (complete main)
Format settings, Endianness : Big
Codec ID : A_AC3
Duration : 1h 43mn
Bit rate mode : Constant
Bit rate : 192 Kbps
Channel(s) : 2 channels
Channel positions : Front: L R
Sampling rate : 48.0 KHz
Bit depth : 16 bits
Compression mode : Lossy
Stream size : 142 MiB (4%)
Title : ???????????????? ????????????
Language : Russian
Default : Yes
Forced : No

Audio #2
ID : 3
Format : AC-3
Format/Info : Audio Coding 3
Mode extension : CM (complete main)
Format settings, Endianness : Big
Codec ID : A_AC3
Duration : 1h 43mn
Bit rate mode : Constant
Bit rate : 448 Kbps
Channel(s) : 6 channels
Channel positions : Front: L C R, Side: L R, LFE
Sampling rate : 48.0 KHz
Bit depth : 16 bits
Compression mode : Lossy
Stream size : 331 MiB (9%)
Title : ????????? ??????????? (?????? ??????)
Language : Russian
Default : No
Forced : No

Audio #3
ID : 4
Format : AC-3
Format/Info : Audio Coding 3
Mode extension : CM (complete main)
Format settings, Endianness : Big
Codec ID : A_AC3
Duration : 1h 43mn
Bit rate mode : Constant
Bit rate : 384 Kbps
Channel(s) : 6 channels
Channel positions : Front: L C R, Side: L R, LFE
Sampling rate : 48.0 KHz
Bit depth : 16 bits
Compression mode : Lossy
Stream size : 284 MiB (8%)
Title : Original
Language : English
Default : No
Forced : No

Text #1
ID : 5
Format : UTF-8
Codec ID : S_TEXT/UTF8
Codec ID/Info : UTF-8 Plain Text
Title : Full
Language : Russian
Default : No
Forced : No

Text #2
ID : 6
Format : UTF-8
Codec ID : S_TEXT/UTF8
Codec ID/Info : UTF-8 Plain Text
Title : SDH
Language : English
Default : No
Forced : No

Menu
00:00:00.000 : en:1
00:04:06.000 : en:2
00:12:37.000 : en:3
00:24:18.000 : en:4
00:33:00.000 : en:5
00:40:57.000 : en:6
00:50:24.000 : en:7
01:00:40.000 : en:8
01:11:53.000 : en:9
01:20:17.000 : en:10
01:28:11.000 : en:11
01:39:34.000 : en:12
pb.wtf



Скачать Вас не догонят через торрент http://pic.kartinco.top/images/6/uxr84.jpg Скачать фильм Вас не догонят через торрент бесплантно в хорошем качестве Описание: Подруги. Соседки по комнате. Влюбленные. В дорогом частном колледже, затерянном в густом лесу, шестнадцатилетних воспитанниц учат ... 10 10 7
Info! Золотая раздача, скачанное не засчитывается.
Торрент: Зарегистрирован [2014-04-17 18:50] · скачан: 45 раз
Статус: √ проверено
Размер: 3.57 GB
Как cкачать? Как скачать Вас не догонят через торрент | qTorrent



Последний раз редактировалось: кэп (2014-04-17 18:50), всего редактировалось 1 раз

28-11-2019 20:33  

Отключить всю рекламу на сайте

    Дорогой пользователь! Огромная просьба, поблагодарите релизера, оцените раздачу и оставьте свои комментарий, если Вы скачали Вас не догонят через торрент бесплатно! Внесите свою лепту в развитие PiratBit!
    Комментировать посты могут только пользователи прошедшие не сложную регистрацию
    Показать сообщения:    

    Вас не догонят через торрент
    Скачать бесплатно Вас не догонят
    Вас не догонят скачать торрент
    Вас не догонят смотреть онлайн
    Cкачать фильм Вас не догонят бесплатно
    Вас не догонят скачать торрент в хорошем качестве
    Вас не догонят смотреть онлайн бесплатно в хорошем качестве


    Вы не можете начинать темы
    Вы не можете отвечать на сообщения
    Вы не можете редактировать свои сообщения
    Вы не можете удалять свои сообщения
    Вы не можете голосовать в опросах
    Вы не можете прикреплять файлы к сообщениям
    Вы можете скачивать файлы