2 сезон

iTunes

1 сезон

1

iTunes

iTunes

iTunes

1 сезон

RePack

30

ИГРА 18+

pack

ВАЖНО

!!Акция!!

Alien_RageХит недели

RePack

MK11
pack

Забери бонус

RePack

jed

!!Акция!!

Alien_Rage

RePack

fifa19

RePack

Assassins Creed: Odyssey

RePack

NEED FOR SPEED™ PAYBACK

4 сезон

9 сезон

Бесстыжие 9 сезон

Все сериалы

все сериалы на PB.wtf

RePack

FAR CRY 5
  

Исчезновение на 7-й улице / Vanishing on 7th Street (Брэд Андерсон / Brad Anderson) [ 2010 , США , ужасы, триллер, детектив , BDRip ](полное дублирование) pb.wtf

Исчезновение на 7-й улице через торрент pb.wtf

Размер: 1.53 GB | Добавлен: 6 лет 6 мес. назад | Торрент скачан:178 раз
Скачать  

30-11-2013 03:10 Исчезновение на 7-й улице Скачать торрент  

Исчезновение на 7-й улице / Vanishing on 7th Street
Год выпуска: 2010
Страна: США
Жанр: ужасы, триллер, детектив

Продолжительность: 01:31:43
Перевод: Профессиональный (полное дублирование)
Субтитры: Английские

Режиссер: Брэд Андерсон / Brad Anderson
Сценарий: Энтони Джазвински / Anthony Jaswinski
Продюсер: Тоув Кристенсен / Tove Christensen, Селин Рэттрэй / Celine Rattray, Нортон Херрик / Norton Herrick, Ник Маршалл / Nic Marshall, Лоуренс Маттис / Lawrence Mattis
Оператор: Ута Бризвитц / Uta Briesewitz
Композитор: Лукас Видал / Lucas Vidal

Хейден Кристенсен (Luke), Джон Легуизамо (Paul), Тэнди Ньютон (Rosemary), Джейкоб Латимор (James), Тейлор Грутиус (Briana), Джордан Тровиллион (Concession Girl), Артур Картрайт (Security Guard), Нил Хафф (Chicago Reporter), Хью Магвайр (Patient), Эрин Николь (Paige), Стивен Кларк (Male TV Anchor), Кэролин Тейлор (Female TV Anchor)

Роли дублировали:Андрей Фединчик (Luke), Екатерина Брайковская

Мировая премьера: 12 сентября 2010
Релиз на DVD: 17 марта 2011,«Новый Диск»

Описание:Необъяснимое затмение опускается на город Детройт, к восходу солнца только несколько человек остаются уцелевшими среди куч одежды, брошенных автомобилей и удлиненных теней. Люк, репортер телевидения, находит улицы вокруг своего дома устрашающе пустыми. Пол, киномеханик, оказывается вдруг совершенно один в совсем недавно переполненном кинотеатре. Физиотерапевт Розмари выходит наружу из-за дыма, а возвращается в пустую больницу, Джеймс, испуганный мальчик терпеливо ждет, пока вернется его мать. Каждый из них находит свой путь к захудалому бару, наличие в котором бензинового генератора, запасов еды и питья делают последним прибежищем в опустевшем городе.
Дневной свет начинает уходить, оставшихся в живых окружают шепчущие тени. Люк обнаруживает, что другой бункер с людьми скрывается поблизости от Чикаго. Он прочесывает город в поисках транспортного средства, которое выручит их всех. Но Розмари, охвачена горем после потери младенца, Джеймс не может бросить мать, а Пол, вероятно, слишком травмирован для поездки. Поскольку время начинает заканчиваться для них, а темнота приближается, им придется столкнуться с запредельным ужасом.

Рейтинг
kinopoisk.ru: 5.303 (7721)
imdb.com: 4.80 (17 942)
MPAA: R - Лицам до 17 лет обязательно присутствие взрослого

Качество: BDRip
Формат: MKV
Видео кодек: AVC
Аудио кодек: AC3
Видео: 1512 Кбит/сек, 1152*480 (2,40:1), в 23,976 кадра/сек, AVC
Аудио №1: русский 384 Кбит/сек, 48,0 КГц, 16 бит, 6 каналов, AC-3
Аудио №2: английский 448 Кбит/сек, 48,0 КГц, 16 бит, 6 каналов, AC-3

Общее
Кол-во : 284
Кол-во потоков такого типа : 1
Тип потока : General
Тип потока : Общее
Идентификатор типа потока : 0
Inform : Matroska: 1,53 Гбайт, 1 ч. 31 м.
Уникальный идентификатор : 250775024028539322857122507860630675883
Уникальный идентификатор : 250775024028539322857122507860630675883 (0xBCA98347643F6418AA052C64C919A1AB)
Кол-во видеопотоков : 1
Кол-во аудиопотоков : 2
Кол-во текстовых потоков : 1
Кол-во потоков меню : 1
Video_Format_List : AVC
Video_Format_WithHint_List : AVC
Видеокодеки : AVC
Video_Language_List : English
Audio_Format_List : AC-3 / AC-3
Audio_Format_WithHint_List : AC-3 / AC-3
Аудиокодеки : AC3 / AC3
Audio_Language_List : Russian / English
Text_Format_List : UTF-8
Text_Format_WithHint_List : UTF-8
Текстовые кодеки : UTF-8
Text_Language_List : English
Полное имя : H:ТОРРЕНТЫИсчезновение.mkv
Имя папки : H:ТОРРЕНТЫ
Имя файла : Исчезновение
Расширение : mkv
Формат : Matroska
Формат : Matroska
Формат/Ссылка : http://packs.matroska.org/
Формат/Используется в : mkv mk3d mka mks
Коммерческое название : Matroska
Версия формата : Version 2
Кодек : Matroska
Кодек : Matroska
Кодек/Ссылка : http://packs.matroska.org/
Кодек/Используется в : mkv mk3d mka mks
Размер файла : 1645296510
Размер файла : 1,53 Гбайт
Размер файла : 2 Гбайт
Размер файла : 1,5 Гбайт
Размер файла : 1,53 Гбайт
Размер файла : 1,532 Гбайт
Продолжительность : 5503488
Продолжительность : 1 ч. 31 м.
Продолжительность : 1 ч. 31 м. 43 с. 488 мс.
Продолжительность : 1 ч. 31 м.
Продолжительность : 01:31:43.488
Общий поток : 2391642
Общий поток : 2392 Кбит/сек
Размер потока : 32738352
Размер потока : 31,2 Мбайт (2%)
Размер потока : 31 Мбайт
Размер потока : 31 Мбайт
Размер потока : 31,2 Мбайт
Размер потока : 31,22 Мбайт
Размер потока : 31,2 Мбайт (2%)
Пропорции потока : 0.01990
Дата кодирования : UTC 2013-08-27 17:16:16
Дата файла : UTC 2013-11-30 01:53:21.991
Дата файла (местная) : 2013-11-30 08:53:21.991
Дата изменения файла : UTC 2013-11-30 02:23:33.338
Дата изменения файла (местная) : 2013-11-30 09:23:33.338
Программа кодирования : mkvmerge v5.0.1 ('Es ist Sommer') built on Nov 6 2011 16:23:40
Библиотека кодирования : libebml v1.2.2 + libmatroska v1.3.0
Библиотека кодирования : libebml v1.2.2 + libmatroska v1.3.0

Видео
Кол-во : 271
Кол-во потоков такого типа : 1
Тип потока : Video
Тип потока : Видео
Идентификатор типа потока : 0
StreamOrder : 0
Inform : English, 1512 Кбит/сек, 1152*480 (2,40:1), в 23,976 кадра/сек, AVC (High@L4.1) (CABAC / 15 Ref Frames)
Идентификатор : 1
Идентификатор : 1
Уникальный идентификатор : 1
Формат : AVC
Формат/Информация : Advanced Video Codec
Формат/Ссылка : http://developers.videolan.org/x264.html
Коммерческое название : AVC
Профиль формата : High@L4.1
Настройки формата : CABAC / 15 Ref Frames
Параметр CABAC формата : Yes
Параметр CABAC формата : Да
Параметр ReFrames формата : 15
Параметр ReFrames формата : 15 кадров
Интернет-тип носителя : video/H264
Идентификатор кодека : V_MPEG4/ISO/AVC
Идентификатор кодека/Ссылка : http://ffdshow-tryout.sourceforge.net/
Кодек : V_MPEG4/ISO/AVC
Кодек : AVC
Кодек/Семейство : AVC
Кодек/Информация : Advanced Video Codec
Кодек/Ссылка : http://ffdshow-tryout.sourceforge.net/
Профиль кодека : High@L4.1
Настройки кодека : CABAC / 15 Ref Frames
Параметр CABAC кодека : Yes
Codec_Settings_RefFrames : 15
Продолжительность : 5503504
Продолжительность : 1 ч. 31 м.
Продолжительность : 1 ч. 31 м. 43 с. 504 мс.
Продолжительность : 1 ч. 31 м.
Продолжительность : 01:31:43.504
Битрейт : 1512048
Битрейт : 1512 Кбит/сек
Ширина : 1152
Ширина : 1152 пикселя
Высота : 480
Высота : 480 пикселей
Пропорции пикселя : 1.000
Соотношение сторон : 2.400
Соотношение сторон : 2,40:1
Режим частоты кадров : CFR
Режим частоты кадров : Постоянный
Частота кадров : 23.976
Частота кадров : 23,976 кадра/сек
Счётчик кадров : 131952
Разрешение : 8
Разрешение : 8 бит
Колориметрия : 4:2:0
Цветовое пространство : YUV
Субдискретизация насыщенности : 4:2:0
Битовая глубина : 8
Битовая глубина : 8 бит
Тип развёртки : Progressive
Тип развёртки : Прогрессивная
Переплетение : PPF
Переплетение : Прогрессивная
Бит/(Пиксели*Кадры) : 0.114
Задержка : 0
Задержка : 00:00:00.000
Задержка в оригинале : Container
Задержка в оригинале : Контейнер
Размер потока : 1040195406
Размер потока : 992 Мбайт (63%)
Размер потока : 992 Мбайт
Размер потока : 992 Мбайт
Размер потока : 992 Мбайт
Размер потока : 992,0 Мбайт
Размер потока : 992 Мбайт (63%)
Пропорции потока : 0.63222
Библиотека кодирования : x264 - core 135 r2345 f0c1c53
Библиотека кодирования : x264 core 135 r2345 f0c1c53
Библиотека кодирования/Имя : x264
Библиотека кодирования/Version : core 135 r2345 f0c1c53
Настройки программы : cabac=1 / ref=15 / deblock=1:-3:-3 / analyse=0x3:0x133 / me=umh / subme=11 / psy=1 / psy_rd=1.15:0.00 / mixed_ref=1 / me_range=48 / chroma_me=1 / trellis=2 / 8x8dct=1 / cqm=0 / deadzone=21,11 / fast_pskip=1 / chroma_qp_offset=-4 / threads=12 / lookahead_threads=3 / sliced_threads=0 / nr=0 / decimate=1 / interlaced=0 / bluray_compat=0 / constrained_intra=0 / bframes=16 / b_pyramid=2 / b_adapt=2 / b_bias=0 / direct=3 / weightb=1 / open_gop=0 / weightp=2 / keyint=250 / keyint_min=23 / scenecut=40 / intra_refresh=0 / rc_lookahead=60 / rc=crf / mbtree=0 / crf=18.2 / qcomp=0.60 / qpmin=0 / qpmax=69 / qpstep=4 / vbv_maxrate=50000 / vbv_bufsize=62500 / crf_max=0.0 / nal_hrd=none / ip_ratio=1.40 / pb_ratio=1.30 / aq=2:1.00
Язык : en
Язык : English
Язык : English
Язык : en
Язык : eng
Язык : en
Default : Yes
Default : Да
Forced : No
Forced : Нет

Аудио #1
Кол-во : 252
Кол-во потоков такого типа : 2
Тип потока : Audio
Тип потока : Аудио
Идентификатор типа потока : 0
Позиция идентификатора типа потока : 1
StreamOrder : 1
Inform : Russian, 384 Кбит/сек, 48,0 КГц, 16 бит, 6 каналов, AC-3
Идентификатор : 2
Идентификатор : 2
Уникальный идентификатор : 549315205
Формат : AC-3
Формат/Информация : Audio Coding 3
Коммерческое название : AC-3
Расширение режима : CM (complete main)
Параметр Endianness формата : Big
Идентификатор кодека : A_AC3
Кодек : AC3
Кодек : AC3
Кодек/Семейство : AC3
Кодек/Информация : Dolby AC3
Продолжительность : 5503488
Продолжительность : 1 ч. 31 м.
Продолжительность : 1 ч. 31 м. 43 с. 488 мс.
Продолжительность : 1 ч. 31 м.
Продолжительность : 01:31:43.488
Вид битрейта : CBR
Вид битрейта : Постоянный
Битрейт : 384000
Битрейт : 384 Кбит/сек
Каналы : 6
Каналы : 6 каналов
Расположение каналов : Front: L C R, Side: L R, LFE
Расположение каналов : 3/2/0.1
Частота : 48000
Частота : 48,0 КГц
Количество образцов : 264167424
Разрешение : 16
Разрешение : 16 бит
Битовая глубина : 16
Битовая глубина : 16 бит
Метод сжатия : Lossy
Метод сжатия : С потерями
Задержка : 0
Задержка : 00:00:00.000
Задержка в оригинале : Container
Задержка в оригинале : Контейнер
Задержка видео : 0
Задержка видео : 0
Размер потока : 264167424
Размер потока : 252 Мбайт (16%)
Размер потока : 252 Мбайт
Размер потока : 252 Мбайт
Размер потока : 252 Мбайт
Размер потока : 251,9 Мбайт
Размер потока : 252 Мбайт (16%)
Пропорции потока : 0.16056
Заголовок : DUB
Язык : ru
Язык : Russian
Язык : Russian
Язык : ru
Язык : rus
Язык : ru
Default : Yes
Default : Да
Forced : No
Forced : Нет
bsid : 8
dialnorm : -30
dialnorm/String : -30 dB
compr : -0.28
compr/String : -0.28 dB
dynrng : -1.48
dynrng/String : -1.48 dB
acmod : 7
lfeon : 1
dialnorm_Average : -30
dialnorm_Average/String : -30 dB
dialnorm_Minimum : -30
dialnorm_Minimum/String : -30 dB
dialnorm_Maximum : -30
dialnorm_Maximum/String : -30 dB
dialnorm_Count : 2
compr_Average : -0.28
compr_Average/String : -0.28 dB
compr_Minimum : -0.28
compr_Minimum/String : -0.28 dB
compr_Maximum : -0.28
compr_Maximum/String : -0.28 dB
compr_Count : 2
dynrng_Average : -1.48
dynrng_Average/String : -1.48 dB
dynrng_Minimum : -1.48
dynrng_Minimum/String : -1.48 dB
dynrng_Maximum : -1.48
dynrng_Maximum/String : -1.48 dB
dynrng_Count : 2

Аудио #2
Кол-во : 234
Кол-во потоков такого типа : 2
Тип потока : Audio
Тип потока : Аудио
Идентификатор типа потока : 1
Позиция идентификатора типа потока : 2
StreamOrder : 2
Inform : English, 448 Кбит/сек, 48,0 КГц, 16 бит, 6 каналов, AC-3
Идентификатор : 3
Идентификатор : 3
Уникальный идентификатор : 398171047
Формат : AC-3
Формат/Информация : Audio Coding 3
Коммерческое название : AC-3
Расширение режима : CM (complete main)
Параметр Endianness формата : Big
Идентификатор кодека : A_AC3
Кодек : AC3
Кодек : AC3
Кодек/Семейство : AC3
Кодек/Информация : Dolby AC3
Продолжительность : 5503488
Продолжительность : 1 ч. 31 м.
Продолжительность : 1 ч. 31 м. 43 с. 488 мс.
Продолжительность : 1 ч. 31 м.
Продолжительность : 01:31:43.488
Вид битрейта : CBR
Вид битрейта : Постоянный
Битрейт : 448000
Битрейт : 448 Кбит/сек
Каналы : 6
Каналы : 6 каналов
Расположение каналов : Front: L C R, Side: L R, LFE
Расположение каналов : 3/2/0.1
Частота : 48000
Частота : 48,0 КГц
Количество образцов : 264167424
Разрешение : 16
Разрешение : 16 бит
Битовая глубина : 16
Битовая глубина : 16 бит
Метод сжатия : Lossy
Метод сжатия : С потерями
Задержка : 0
Задержка : 00:00:00.000
Задержка в оригинале : Container
Задержка в оригинале : Контейнер
Задержка видео : 0
Задержка видео : 0
Размер потока : 308195328
Размер потока : 294 Мбайт (19%)
Размер потока : 294 Мбайт
Размер потока : 294 Мбайт
Размер потока : 294 Мбайт
Размер потока : 293,9 Мбайт
Размер потока : 294 Мбайт (19%)
Пропорции потока : 0.18732
Язык : en
Язык : English
Язык : English
Язык : en
Язык : eng
Язык : en
Default : No
Default : Нет
Forced : No
Forced : Нет
bsid : 8
dialnorm : -31
dialnorm/String : -31 dB
acmod : 7
lfeon : 1
dialnorm_Average : -31
dialnorm_Average/String : -31 dB
dialnorm_Minimum : -31
dialnorm_Minimum/String : -31 dB
dialnorm_Maximum : -31
dialnorm_Maximum/String : -31 dB
dialnorm_Count : 2

Текст
Кол-во : 195
Кол-во потоков такого типа : 1
Тип потока : Text
Тип потока : Текст
Идентификатор типа потока : 0
StreamOrder : 3
Inform : English, UTF-8
Идентификатор : 4
Идентификатор : 4
Уникальный идентификатор : 951674752
Формат : UTF-8
Коммерческое название : UTF-8
Идентификатор кодека : S_TEXT/UTF8
Идентификатор кодека/Информация : UTF-8 Plain Text
Кодек : S_TEXT/UTF8
Кодек : UTF-8
Кодек/Информация : UTF-8 Plain Text
Язык : en
Язык : English
Язык : English
Язык : en
Язык : eng
Язык : en
Default : Yes
Default : Да
Forced : No
Forced : Нет

Меню
Кол-во : 90
Кол-во потоков такого типа : 1
Тип потока : Menu
Тип потока : Меню
Идентификатор типа потока : 0
Chapters_Pos_Begin : 77
Chapters_Pos_End : 90
00:00:00.000 : :00:00:00.000
00:07:20.148 : :00:07:20.148
00:16:42.209 : :00:16:42.209
00:27:41.076 : :00:27:41.076
00:35:54.068 : :00:35:54.068
00:45:56.253 : :00:45:56.253
00:54:09.579 : :00:54:09.579
01:00:48.686 : :01:00:48.686
01:09:02.930 : :01:09:02.930
01:13:37.412 : :01:13:37.412
01:21:08.488 : :01:21:08.488
01:24:58.927 : :01:24:58.927
01:31:13.217 : :01:31:13.217


скриншот  скриншот  скриншот  скриншот  скриншот  скриншот  скриншот  скриншот  



pb.wtf



Скачать Исчезновение на 7-й улице через торрент http://trueimages.ru/img/be/ff/e0349925.jpg Скачать фильм Исчезновение на 7-й улице через торрент бесплантно в хорошем качестве Описание:Необъяснимое затмение опускается на город Детройт, к восходу солнца только несколько человек остаются уцелевшими среди куч одежды, ... 10 10 13
Торрент: Зарегистрирован [2014-04-17 09:22] · скачан: 178 раз
Статус: √ проверено
Размер: 1.53 GB
Как cкачать? Как скачать Исчезновение на 7-й улице через торрент | qTorrent

% Раздел Тема Автор DL S | L
Фильмы 2010 [ 1.37 GB ] Исчезновение на 7-й улице / Vanishing on 7th Street [2010 HDRip лицензия] coc900 Скачать
1 | 0
Фильмы [HD 720p, 1080p] (Хороший звук DUB, MVO) [ 8.19 GB ] Исчезновение на 7-й улице / Vanishing On 7th Street [2010 BDRip DUB + Оригинал] timsons17 Скачать
1 | 0
Фильмы 2010 [ 1.45 GB ] Исчезновение на 7-й улице / Vanishing on 7th Street [2010 BDRip] slaventi-69 Скачать
1 | 0
Фильмы 2010 [ 1.27 GB ] Исчезновение на 7-й улице / Vanishing on 7th Street [2010 BDRip лицензия] Sудья Скачать
1 | 0
Фильмы [HD 720p, 1080p] (Хороший звук DUB, MVO) [ 4.61 GB ] Исчезновение на 7-й улице / Vanishing on 7th Street [2010 BDRip лицензия] ACFIORENTINA Скачать
1 | 0
Фильмы (DVD фильмы) [ 3.52 GB ] Исчезновение на 7-й улице / Vanishing On 7th Street [2010 DVD5] R5 «New Dream media» voovaz Скачать
1 | 0
Фильмы 2010 [ 1.37 GB ] Исчезновение на 7-й улице / Vanishing on 7th Street [2010 DVDRip лицензия] Lil Badun Скачать
1 | 0

28-11-2019 20:33  

Отключить всю рекламу на сайте

22-04-2014 10:01 Исчезновение на 7-й улице Скачать торрент  

Это какая то непонятная "Мутота"
Думал будет Интересно, а оказалось иначе...pb.wtf



26-06-2015 20:22 Исчезновение на 7-й улице Скачать торрент  

фильм неожиданно потряс.... очень атмосферный и волнующий фильм...pb.wtf



    Дорогой пользователь! Огромная просьба, поблагодарите релизера, оцените раздачу и оставьте свои комментарий, если Вы скачали Исчезновение на 7-й улице через торрент бесплатно! Внесите свою лепту в развитие PiratBit!
    Комментировать посты могут только пользователи прошедшие не сложную регистрацию
    Показать сообщения:    

    Исчезновение на 7-й улице через торрент
    Скачать бесплатно Исчезновение на 7-й улице
    Исчезновение на 7-й улице скачать торрент
    Исчезновение на 7-й улице смотреть онлайн
    Cкачать фильм Исчезновение на 7-й улице бесплатно
    Исчезновение на 7-й улице скачать торрент в хорошем качестве
    Исчезновение на 7-й улице смотреть онлайн бесплатно в хорошем качестве


    Вы не можете начинать темы
    Вы не можете отвечать на сообщения
    Вы не можете редактировать свои сообщения
    Вы не можете удалять свои сообщения
    Вы не можете голосовать в опросах
    Вы не можете прикреплять файлы к сообщениям
    Вы можете скачивать файлы