Доктор Стрэндж

Лицензия

Добыча

Дубляж

Уэнсдэй

1 сезон

Тор

Дубляж

В эфире

Дубляж

Там, где раки поют

MVO

Властелин колец

1 сезон

Deluxe

pack

Рекомендуем

30

Пиратка

ВАЖНО

ВАЖНО

Ghostwire

Пиратка

jed

RePack

nioh2

RePack

RDR2

RePack

NEED FOR SPEED™ PAYBACK

RePack

скачать торрент

Кинопоиск HD

Острые козырьки 6 сезон

6 сезон

FAR CRY 6

RePack

скачать торрент

Лицензия

скачать торрент

MVO

1

1 сезон

скачать торрент

1 сезон

скачать торрент

Лицензия

  

Час пик / Rush Hour (Бретт Рэтнер) [1998 г., боевик, триллер, комедия, Blu-ray, Дубляж + Оригинал]

Час пик через торрент pb.wtf

Размер: 22.77 GB | Добавлен: 8 лет 7 мес. назад | Торрент скачан:0 раз
Смотреть онлайн | Скачать   

17-04-2014 14:15 Час пик Скачать торрент  

Час пик / Rush Hour
Год выпуска: 1998
Страна: США
Жанр: боевик, триллер, комедия
Продолжительность: 01:37:49
Перевод: Дубляж + Оригинал+Авторский (Гаврилов Андрей)+
Авторский одноголосый (Санаев)
Субтитры: Английские, русские, немецкие

Режиссер: Бретт Рэтнер

В ролях: Кен Люн, Джеки Чан, Том Уилкинсон, Ци Ма, Роберт Литман, Майкл Чоу, Джулия Хсю, Крис Такер, Крис Пенн, Кай Леннокс

Описание: В Лос-Анджелесе злодеи похищают малолетнюю дочь китайского консула, которую в Гонконге учил кунг-фу инспектор Ли. Консул вызывает Ли в Америку, чтобы тот принял участие в освобождении девочки.
Агенты ФБР обратились к полиции с просьбой выделить им самого никчемного сотрудника, чтобы тот взял китайца на себя и показал ему достопримечательности, а главное, не позволил вмешиваться в их дела.
Им оказывается самый болтливый полицейский Картер. Естественно, после ряда разногласий и недоразумений они объединяют усилия и всерьез берутся за вызволение заложницы.

Качество: Blu-ray
Формат: BDMV
Видео кодек: H.264
Аудио кодек: AC3-DTS-HD MA-DTS
Видео: MPEG-4 AVC, (1920x1080),22754 Кбит/с, 23976 кадра/сек
Аудио#1: AC-3, 6 ch, 448 kbps (Rus) 48.0 KHz Дубляж
Аудио#2: DTS-HD MA 6 ch, 1509 kbps,(Eng) 48 kHz Оригинал
Аудио#3: DTS- 6 ch, 1509 kbps,(Rus) 48 kHz Авторский (Гаврилов Андрей)
Аудио#4: DTS- 6 ch, 754 kbps,(Rus) 48 kHz Авторский одноголосый (Санаев,)
Аудио#5: AC-3, 2 ch, 192 kbps (Eng) 48.0 KHz Оригинал
Аудио#6: AC-3, 2 ch, 192 kbps (Eng) 48.0 KHz Оригинал
скриншот   скриншот   скриншот  

Тип потока: Видео
Длительность: 01:37:48
Кодек: VC-1
Кодек/профиль: [email protected]
Кодек/ID: 234
Размеры изображения: 1920 x 1080 (16:9)
Частота кадров: 23.976 fps
Метод сжатия: Lossy
Цветовое пространство: YUV
Тип развёртки: Progressive
Глубина: 8 bits
:
Тип потока: Звук #1
Язык: Russian
Длительность: 01:37:51.392
Кодек: AC-3
Кодек/описание: Audio Coding 3
Кодек/ID: 129
Частота дискретизации: 48.0 KHz
Каналов: 6 channels
Битрейт: 448 Kbps
Битрейт/тип: Constant
Размер потока: 314 MiB (1%)
Глубина: 16 bits
Метод сжатия: Lossy
:
Тип потока: Звук #2
Язык: English
Длительность: 01:37:49.909
Кодек: DTS
Кодек/описание: Digital Theater Systems
Кодек/профиль: MA / Core
Режим смешивания: Stream extension
Кодек/ID: 134
Частота дискретизации: 48.0 KHz
Каналов: 8 channels / 6 channels
Битрейт: Unknown / 1 509 Kbps
Битрейт/тип: Variable
Глубина: 24 bits
Метод сжатия: Lossless / Lossy
:
Тип потока: Звук #3
Язык: Russian
Длительность: 01:37:49.909
Кодек: DTS
Кодек/описание: Digital Theater Systems
Кодек/ID: 130
Частота дискретизации: 48.0 KHz
Каналов: 6 channels
Битрейт: 1 510 Kbps
Битрейт/тип: Constant
Размер потока: 1.03 GiB (5%)
Глубина: 24 bits
Метод сжатия: Lossy
:
Тип потока: Звук #4
Язык: Russian
Длительность: 01:37:51.435
Кодек: DTS
Кодек/описание: Digital Theater Systems
Кодек/ID: 130
Частота дискретизации: 48.0 KHz
Каналов: 6 channels
Битрейт: 755 Kbps
Битрейт/тип: Constant
Размер потока: 528 MiB (2%)
Глубина: 24 bits
Метод сжатия: Lossy
:
Тип потока: Звук #5
Язык: English
Длительность: 01:37:49.920
Кодек: AC-3
Кодек/описание: Audio Coding 3
Кодек/профиль: Dolby Digital
Кодек/ID: 129
Частота дискретизации: 48.0 KHz
Каналов: 2 channels
Битрейт: 192 Kbps
Битрейт/тип: Constant
Размер потока: 134 MiB (1%)
Глубина: 16 bits
Метод сжатия: Lossy
:
Тип потока: Звук #6
Язык: English
Длительность: 01:37:49.920
Кодек: AC-3
Кодек/описание: Audio Coding 3
Кодек/профиль: Dolby Digital
Кодек/ID: 129
Частота дискретизации: 48.0 KHz
Каналов: 2 channels
Битрейт: 192 Kbps
Битрейт/тип: Constant
Размер потока: 134 MiB (1%)
Глубина: 16 bits
Метод сжатия: Lossy
:
Тип потока: Субтитры #1
Язык: Russian
Формат: PGS
:
Тип потока: Субтитры #2
Язык: English
Формат: PGS
:
Тип потока: Субтитры #3
Язык: German
Формат: PGS




Скачать Час пик через торрент https://pic1.kartinco.top/images/61/rami9.jpg Скачать, смотреть онлайн Час пик бесплантно в хорошем качестве Описание: В Лос-Анджелесе злодеи похищают малолетнюю дочь китайского консула, которую в е учил кунг-фу инспектор Ли. Консул вызывает ... 10 10 8
Торрент: Зарегистрирован [2014-04-17 14:15] · скачан: 0 раз
Статус: √ проверено
Размер: 22.77 GB
Как cкачать? Как скачать Час пик через торрент | UTorrent

% Раздел Тема Автор DL S | L
Сборники (HD Video) [ 22.35 GB ] Час пик: Трилогия / Rush Hour: Trilogy | DUB + MVO + DVO + AVO | 1080p RealOldGamer Скачать
2 | 0
Фильмы 2006-2008 [ 2.31 GB ] Час пик 3 / Rush Hour 3 | DUB | BDRip-AVC msltel Скачать
1 | 0
Фильмы до 2000 г. [ 1.46 GB ] Час пик / Rush Hour | | BDRip killermax2013 Скачать
1 | 0
Фильмы до 2000 г. [ 1.37 GB ] Час пик / Rush Hour | | DVDRip chaga2009 Скачать
1 | 0
Фильмы [HD 720p, 1080p] (Хороший звук DUB, MVO) [ 10.21 GB ] Час пик / Rush Hour | Дубляж | 1080p, Дубляж Бумер Скачать
1 | 0
Сборники на DVD и Сиквелы [DVDrip, WEB-DLRip, HDrip, BDRip] [ 4.19 GB ] Час Пик: Трилогия / Rush Hour: Trilogy | | DVDRip mickhemp Скачать
1 | 0
Фильмы 2001-2005 [ 1.46 GB ] Час пик 2 / Rush Hour 2 | DUB | DLRip, DUB, лицензия Assassins Creed Скачать
1 | 0

28-11-2019 20:33  


Отключить вcю реклaмy на сайте, в т.ч. и в плеере онлайн просмотра!

    Дорогой пользователь! Огромная просьба, поблагодарите релизера, оцените раздачу и оставьте свои комментарий, если Вы скачали Час пик через торрент бесплатно!!
    Комментировать посты могут только пользователи прошедшие не сложную регистрацию
    Показать сообщения:    


    Час пик через торрент
    Скачать бесплатно Час пик
    Час пик скачать торрент
    Час пик смотреть онлайн
    Cкачать фильм Час пик бесплатно
    Час пик скачать торрент в хорошем качестве
    Час пик смотреть онлайн бесплатно в хорошем качестве
    Вы не можете начинать темы
    Вы не можете отвечать на сообщения
    Вы не можете редактировать свои сообщения
    Вы не можете удалять свои сообщения
    Вы не можете голосовать в опросах
    Вы не можете прикреплять файлы к сообщениям
    Вы можете скачивать файлы
    Час пик / Rush Hour [1998 г., боевик, триллер, комедия, Blu-ray, Дубляж + Оригинал] смотреть онлайн, скачать торрент picoco.icu