Ссылка на приватное зеркало нашего сайта всего за 1$. Внимание количество ограничено!!!

2 сезон

iTunes

1 сезон

1

2 сезон

2 сезон

iTunes

1 сезон

RePack

30

Ultimate

ВАЖНО

ИГРА 18+

pack

RePack

MK11
pack

Забери бонус

RePack

jed

!!Акция!!

Alien_Rage

RePack

fifa19

RePack

Assassins Creed: Odyssey

RePack

NEED FOR SPEED™ PAYBACK

4 сезон

9 сезон

Бесстыжие 9 сезон

Все сериалы

все сериалы на PB.wtf

RePack

FAR CRY 5
  

Хранилище 13 / Warehouse 13 / Сезон: 5 / Серии: 1-6 (6) (Крис Фишер) [2014 г., фантастика, триллер, драма, детектив, WEB-DLRip] [MVO] (LostFilm) pb.wtf

Хранилище 13 через торрент pb.wtf

Размер: 3.47 GB | Добавлен: 5 лет 1 мес. назад | Торрент скачан:116 раз
Скачать  

18-04-2014 05:07 Хранилище 13 Скачать торрент  



Хранилище 13 / Warehouse 13

«У необъяснимого есть адрес»
Год выпуска:
2014
Страна:
США | Syfy
Жанр: фантастика, триллер, драма, детектив
Продолжительность: 01x ~ 00:43:22
Перевод: Профессиональный (многоголосый, закадровый) - LostFilm

Режиссёр: Крис Фишер / Chris Fisher




В ролях: Эдди МакКлинток, Джоэнн Келли, Сол Рубинек, Дженелл Уильямс, Эллисон Скальотти, Си Си Эйч Паундер, Саймон Рейнольдс, Аарон Эшмор, Джейми Мюррэй, Саша Ройз и др.
Описание: После спасения жизни президента двух агентов Секретной службы переводят на секретный объект в штате Южная Дакота. Там содержатся сверхъестественные вещи, которые правительство США собирало в течение столетий. Их новое задание — вернуть часть пропавших вещей и расследовать сообщения о новых.

ImDB / Кинопоиск




Качество: WEB-DLRip
Формат: AVI
Видео кодек: XviD
Аудио кодек: MP3
Видео: 720x400 (1.80:1), 23.976 fps, XviD MPEG-4 ~1914 kbps avg, 0.28 bit/pixel
Аудио: 48 kHz, MPEG Layer 3, 2 ch, ~192.00 kbps avg
01. Бесконечный ужас / Endless Terror
General
Complete name : E:\INTERNET\Warehouse 13 (S05)\Warehouse.13.S05E01.rus.LostFilm.TV.avi
Format : AVI
Format/Info : Audio Video Interleave
File size : 654 MiB
Duration : 43mn 11s
Overall bit rate : 2 117 Kbps
Writing application : Nandub v1.0rc2
Writing library : Nandub build 1853/release

Video
ID : 0
Format : MPEG-4 Visual
Format profile : Simple@L3
Format settings, BVOP : No
Format settings, QPel : No
Format settings, GMC : No warppoints
Format settings, Matrix : Default (H.263)
Codec ID : XVID
Codec ID/Hint : XviD
Duration : 43mn 11s
Bit rate : 1 915 Kbps
Width : 720 pixels
Height : 400 pixels
Display aspect ratio : 16:9
Frame rate : 23.976 fps
Color space : YUV
Chroma subsampling : 4:2:0
Bit depth : 8 bits
Scan type : Progressive
Compression mode : Lossy
Bits/(Pixel*Frame) : 0.277
Stream size : 592 MiB (90%)
Writing library : XviD 1.2.1 (UTC 2008-12-04)

Audio
ID : 1
Format : MPEG Audio
Format version : Version 1
Format profile : Layer 3
Mode : Joint stereo
Mode extension : MS Stereo
Codec ID : 55
Codec ID/Hint : MP3
Duration : 43mn 11s
Bit rate mode : Variable
Bit rate : 192 Kbps
Channel(s) : 2 channels
Sampling rate : 48.0 KHz
Compression mode : Lossy
Stream size : 58.3 MiB (9%)
Alignment : Aligned on interleaves
Interleave, duration : 24 ms (0.58 video frame)
Interleave, preload duration : 451 ms
Writing library : LAME3.97b
Encoding settings : -m j -V 4 -q 3 -lowpass 18.6 --abr 192
Чтобы начать докачку новой серии, пользователям необходимо сделать следующее:
Остановить скачивание.
Удалить старый торрент у себя из клиента (старые серии удалять не надо).
Скачать новый торрент и запустить его у себя в клиенте вместо старого, при этом указать клиенту путь в старую папку куда и должно происходить скачивание новых серий.Ваш клиент при этом должен произвести хеширование (проверку) старой папки (если не производит сам - помогите ему сделать это), и будет докачивать только те серии которых у вас ещё нет. Старые серии при этом не удаляются, а продолжают раздаваться!
Eсли вы уже удалили старые серии, то предотвратить повторную закачку старых серий можно, отжав галочку в соответсвующих местах при запуске нового торрента. По возможности, желательно не удалять старые серии как можно дольше чтобы релизёр не столько продолжал раздавать старые серии, а смог сконцентрироваться на новых.
pb.wtf



Скачать Хранилище 13 через торрент http://pic.kartinco.top/images/6/wswic.jpg Скачать фильм Хранилище 13 через торрент бесплантно в хорошем качестве Описание: После спасения жизни президента двух агентов Секретной службы переводят на секретный объект в штате Южная Дакота. Там содержатся ... 10 10 16
Торрент: Зарегистрирован [2015-10-27 12:20] · скачан: 116 раз
Статус: √ проверено
Размер: 3.47 GB
Как cкачать? Как скачать Хранилище 13 через торрент | qTorrent

% Раздел Тема Автор DL S | L
Зарубежные сериалы [ 2.04 GB ] Хранилище 13 / Warehouse 13 / Сезон: 5 / Серии: 1-6 [2014 HDTVRip] [SUB Rus] killermax2013 Скачать
1 | 0


Последний раз редактировалось: killermax2013 (2015-10-27 12:20), всего редактировалось 2 раз(а)

28-11-2019 20:33  

Отключить всю рекламу на сайте

18-04-2014 07:05 Хранилище 13 Скачать торрент  

killermax2013

Указывайте список серий:
01. Бесконечный ужас / Endless Terror
pb.wtf



18-04-2014 07:23 Хранилище 13 Скачать торрент  

кэп писал(а):

killermax2013

Указывайте список серий:
01. Бесконечный ужас / Endless Terror

Окpb.wtf



27-10-2015 12:21 Хранилище 13 Скачать торрент  

Цитата:

добавлены все серии

pb.wtf



    Дорогой пользователь! Огромная просьба, поблагодарите релизера, оцените раздачу и оставьте свои комментарий, если Вы скачали Хранилище 13 через торрент бесплатно! Внесите свою лепту в развитие PiratBit!
    Комментировать посты могут только пользователи прошедшие не сложную регистрацию
    Показать сообщения:    

    Хранилище 13 через торрент
    Скачать бесплатно Хранилище 13
    Хранилище 13 скачать торрент
    Хранилище 13 смотреть онлайн
    Cкачать фильм Хранилище 13 бесплатно
    Хранилище 13 скачать торрент в хорошем качестве
    Хранилище 13 смотреть онлайн бесплатно в хорошем качестве


    Вы не можете начинать темы
    Вы не можете отвечать на сообщения
    Вы не можете редактировать свои сообщения
    Вы не можете удалять свои сообщения
    Вы не можете голосовать в опросах
    Вы не можете прикреплять файлы к сообщениям
    Вы можете скачивать файлы