2 сезон

iTunes

1 сезон

1

iTunes

iTunes

iTunes

1 сезон

RePack

30

ИГРА 18+

pack

ВАЖНО

!!Акция!!

Alien_RageХит недели

RePack

MK11
pack

Забери бонус

RePack

jed

!!Акция!!

Alien_Rage

RePack

fifa19

RePack

Assassins Creed: Odyssey

RePack

NEED FOR SPEED™ PAYBACK

4 сезон

9 сезон

Бесстыжие 9 сезон

Все сериалы

все сериалы на PB.wtf

RePack

FAR CRY 5
  

Микки: И снова под Рождество / Mickey's Twice Upon a Christmas (Кэрол Холлидэй, Мэттью О’Каллаган, Тереза Петтенджилл) [2004 г., мультфильм, фэнтези, комедия, семейный, DVDRip, Дубляж] pb.wtf

Микки: И снова под Рождество через торрент pb.wtf

Размер: 1.37 GB | Добавлен: 6 лет 6 мес. назад | Торрент скачан:149 раз
Скачать  

18-04-2014 06:41 Микки: И снова под Рождество Скачать торрент  

Микки: И снова под Рождество / Mickey's Twice Upon a Christmas

Год выпуска: 2004
Страна: США
Жанр: мультфильм, фэнтези, комедия, семейный
Продолжительность: 01:04:32
Перевод: Дубляж
Субтитры: Russian

Режиссер: Кэрол Холлидэй, Мэттью О’Каллаган, Тереза Петтенджилл
Продюссер: Пэм Мэрсден, Аль Шир
Сценарий: Пегги Холмс, Чад Файвэш, Джеймс Патрик Стотеро
Премьера в мире: 9 ноября 2004

IMDB 6.70 (1338)


В ролях: Уэйн Оллвэйн, Тони Ансельмо, Билл Фармер, Шон Флемминг, Тресс МакНилл, Расси Тейлор, Джефф Беннетт, Джим Каммингс, Джейсон Мэрсден, Чак МакКанн, Максим Сергеев, Михаил Вассербаум, Снежина Копрова, Андрей Тенетко, Владислав Галкин

Описание: Приходите в гости к Санта Клаусу, Микки Маусу и другим диснеевским героям на праздник и узнайте, как они встречают Рождество. Cтарина Дональд всеми силами пытается противостоять празднику, в то время как Микки и Плуто веселятся от души.

Качество: DVDRip
Формат: AVI
Видео кодек: XviD
Аудио кодек: AC3
Видео: 720x416 (1.73:1), 25.000 fps, XviD MPEG-4 ~2 197 kbps avg, 0.29 bit/pixel
Аудио#1: Russian: 48 kHz, 3/2 (L,C,R,l,r) + LFE ch, ~384 kbps
Аудио#2: English: 48 kHz, 3/2 (L,C,R,l,r) + LFE ch, ~448 kbps
General
Complete name : /home/sb753/files/Mikki.I.snova.pod.Rojdestvo.[dragomire]_rutracker.org/Mikki.I.snova.pod.Rojdestvo.[dragomire]_rutracker.org.avi
Format : AVI
Format/Info : Audio Video Interleave
File size : 1.37 GiB
Duration : 1h 4mn
Overall bit rate : 3 043 Kbps
Writing application : VirtualDubMod 1.5.10.2 (build 2540/release)
Writing library : VirtualDubMod build 2540/release

Video
ID : 0
Format : MPEG-4 Visual
Format profile : Advanced Simple@L5
Format settings, BVOP : 1
Format settings, QPel : No
Format settings, GMC : No warppoints
Format settings, Matrix : Default (MPEG)
Codec ID : XVID
Codec ID/Hint : XviD
Duration : 1h 4mn
Bit rate : 2 197 Kbps
Width : 720 pixels
Height : 416 pixels
Display aspect ratio : 1.731
Frame rate : 25.000 fps
Color space : YUV
Chroma subsampling : 4:2:0
Bit depth : 8 bits
Scan type : Progressive
Compression mode : Lossy
Bits/(Pixel*Frame) : 0.293
Stream size : 1 014 MiB (72%)
Writing library : XviD 1.2.1 (UTC 2008-12-04)

Audio #1
ID : 1
Format : AC-3
Format/Info : Audio Coding 3
Mode extension : CM (complete main)
Format settings, Endianness : Big
Codec ID : 2000
Duration : 1h 4mn
Bit rate mode : Constant
Bit rate : 384 Kbps
Channel(s) : 6 channels
Channel positions : Front: L C R, Side: L R, LFE
Sampling rate : 48.0 KHz
Bit depth : 16 bits
Compression mode : Lossy
Delay relative to video : 500ms
Stream size : 177 MiB (13%)
Alignment : Split accross interleaves
Interleave, duration : 40 ms (1.00 video frame)
Interleave, preload duration : 500 ms

Audio #2
ID : 2
Format : AC-3
Format/Info : Audio Coding 3
Mode extension : CM (complete main)
Format settings, Endianness : Big
Codec ID : 2000
Duration : 1h 4mn
Bit rate mode : Constant
Bit rate : 448 Kbps
Channel(s) : 6 channels
Channel positions : Front: L C R, Side: L R, LFE
Sampling rate : 48.0 KHz
Bit depth : 16 bits
Compression mode : Lossy
Delay relative to video : 500ms
Stream size : 207 MiB (15%)
Alignment : Split accross interleaves
Interleave, duration : 40 ms (1.00 video frame)
Interleave, preload duration : 500 ms
pb.wtf



Скачать Микки: И снова под Рождество через торрент http://pic.kartinco.top/images/6/c64t4.jpg Скачать фильм Микки: И снова под Рождество через торрент бесплантно в хорошем качестве Описание: Приходите в гости к Санта Клаусу, Микки Маусу и другим диснеевским героям на праздник и узнайте, как они встречают Рождество. ... 10 10 12
Торрент: Зарегистрирован [2014-04-18 06:41] · скачан: 149 раз
Статус: √ проверено
Размер: 1.37 GB
Как cкачать? Как скачать Микки: И снова под Рождество через торрент | qTorrent

28-11-2019 20:33  

Отключить всю рекламу на сайте

    Дорогой пользователь! Огромная просьба, поблагодарите релизера, оцените раздачу и оставьте свои комментарий, если Вы скачали Микки: И снова под Рождество через торрент бесплатно! Внесите свою лепту в развитие PiratBit!
    Комментировать посты могут только пользователи прошедшие не сложную регистрацию
    Показать сообщения:    

    Микки: И снова под Рождество через торрент
    Скачать бесплатно Микки: И снова под Рождество
    Микки: И снова под Рождество скачать торрент
    Микки: И снова под Рождество смотреть онлайн
    Cкачать фильм Микки: И снова под Рождество бесплатно
    Микки: И снова под Рождество скачать торрент в хорошем качестве
    Микки: И снова под Рождество смотреть онлайн бесплатно в хорошем качестве


    Вы не можете начинать темы
    Вы не можете отвечать на сообщения
    Вы не можете редактировать свои сообщения
    Вы не можете удалять свои сообщения
    Вы не можете голосовать в опросах
    Вы не можете прикреплять файлы к сообщениям
    Вы можете скачивать файлы