>

7.4

iTunes

7.4

2 сезон

9.4

1 сезон

1

7.4

2 сезон

7.2

iTunes

6.0

MVO

13

6.1

iTunes

8.3

Пиратка

30

ULTIMATE

pack

9.9

Лицензия

ВАЖНО

ИГРА 18+

pack

7.3

RePack

MK11

7.7

RePack

jed

7.8

RePack

fifa19

8.5

RePack

RDR2

RePack

NEED FOR SPEED™ PAYBACK

1 сезон

9 сезон

Бесстыжие 9 сезон

Все сериалы

все сериалы на PB.wtf

RePack

FAR CRY 5

Anonymous, доброй ночи, мы катастрофически не успеваем собрать деньги на оплату серверов, помогите нам пожалуйста 5,10,15р., для нас важна любая помощь . В качестве благодарности мы отключим Вам всю рекламу на сайте (укажите свой ник в строку Ваше имя)!

×
  
Magnet ссылка

Летний день (ТВ) / Un jour d'ete; (Франк Герин / Franck Guérin) [2006, Франция, драма, DVDRip,Авторский (одноголосый) pb.wtf

Летний день через торрент pb.wtf

Размер: 1.45 GB | Добавлен: 7 лет 8 мес. назад | Торрент скачан:26 раз
Смотреть онлайн Летний день | Скачать    Ребята, помогите собрать деньги на оплату серверов!!!

18-04-2014 15:05 Летний день Скачать торрент  

Летний день (ТВ) / Un jour d'été
Год выпуска: 2006
Страна: Франция
Жанр: драма
Продолжительность: 01:31:40
Перевод: Авторский (одноголосый) (Сергей Кузнецов)
Субтитры: Нет

Режиссер: Франк Герин / Franck Guérin
В ролях: Баптисте Бертин (Sébastien), Катрин Муше (La mère de Mickaël), Жан-Франсуа Стевенен (Maurice), Тео Фриле (Mickaël), Элиз Карон (Louise), Филипп Фретюн (Le père de Sébastien), Yann Peira (L'enquêteur), Тьерри Годар (L'entraineur), Бернар Бланкан (L'adjoint au maire), Колетт Бонне, Леа Дидье (Manuella), Андрэа Фонтана

Описание: Действие фильма происходит в небольшом провинциальном городке на западе Франции. Главный герой - 17-летний юноша Себастиен работает механиком в гараже у отца, а в свободное время занимается спортом. Он играет в футбол, а среди футболистов команды у него много друзей. Один из них - его ровесник Микаэль, который трагически погибает в результате несчастного случая.
Это событие стало настоящим шоком для всего городка. Полиция начинает расследовать, было ли это происшествие случайностью или преступной небрежностью. А переживающая утрату сына мать находит утешение в общении с Себастиеном, который старается хоть как-то помочь женщине унять её боль...

kinopoisk.ru: 6.111 (43)
imdb.com: 6.60 (197)

Качество: DVDRip
Формат: AVI
Видео кодек: XviD
Аудио кодек: AC3
Видео: XviD, 720x384 (1.875), 2062 kbps, 25 fps, 0,298 bpp
Аудио: AC3 / 2.0 / 48 kHz / 192 kbps / 16 bit

General
Complete name : E:\закачки\Letniy.den.2006.XviD.DVDRip.avi
Format : AVI
Format/Info : Audio Video Interleave
File size : 1.45 GiB
Duration : 1h 31mn
Overall bit rate : 2 265 Kbps
Writing application : VirtualDubModRus 1.5.10.2 (build 2542/release)
Writing library : VirtualDubMod build 2542/release

Video
ID : 0
Format : MPEG-4 Visual
Format profile : Advanced Simple@L5
Format settings, BVOP : 2
Format settings, QPel : No
Format settings, GMC : No warppoints
Format settings, Matrix : Default (MPEG)
Codec ID : XVID
Codec ID/Hint : XviD
Duration : 1h 31mn
Bit rate : 2 063 Kbps
Width : 720 pixels
Height : 384 pixels
Display aspect ratio : 1.875
Frame rate : 25.000 fps
Color space : YUV
Chroma subsampling : 4:2:0
Bit depth : 8 bits
Scan type : Progressive
Compression mode : Lossy
Bits/(Pixel*Frame) : 0.298
Stream size : 1.32 GiB (91%)
Writing library : XviD 1.2.1 (UTC 2008-12-04)

Audio
ID : 1
Format : AC-3
Format/Info : Audio Coding 3
Mode extension : CM (complete main)
Codec ID : 2000
Duration : 1h 31mn
Bit rate mode : Constant
Bit rate : 192 Kbps
Channel(s) : 2 channels
Channel positions : Front: L R
Sampling rate : 48.0 KHz
Bit depth : 16 bits
Compression mode : Lossy
Stream size : 126 MiB (8%)
Alignment : Split accross interleaves
Interleave, duration : 40 ms (1.00 video frame)
Interleave, preload duration : 500 ms
pb.wtf



Скачать Летний день через торрент http://3.firepic.org/3/images/2014-04/17/u6h8keqjlce3.jpg Скачать, смотреть онлайн Летний день бесплантно в хорошем качестве Описание: Действие фильма происходит в небольшом провинциальном городке на западе Франции. Главный герой - 17-летний юноша Себастиен ... 10 10 1
Торрент: Зарегистрирован [2014-04-18 15:05] · скачан: 26 раз
Статус: √ проверено
Размер: 1.45 GB
Как cкачать? Как скачать Летний день через торрент | UTorrent

% Раздел Тема Автор DL S | L
Порно фильмы без сюжета [ 1.42 GB ] 19ти-летние Молоденькие Гречанки / 19xrones Elinnides Arxaries / 19χρονες Ελληνίδες Αρχάριες [2012 Legal Teen Hardcore All Sex Masturbation Toys. DVDRip] Pir@tya2010 Скачать
1 | 0

28-11-2019 20:33  

Отключить всю рекламу на сайте

    Дорогой пользователь! Огромная просьба, поблагодарите релизера, оцените раздачу и оставьте свои комментарий, если Вы скачали Летний день через торрент бесплатно!
    Комментировать посты могут только пользователи прошедшие не сложную регистрацию
    Показать сообщения:    

    Летний день через торрент
    Скачать бесплатно Летний день
    Летний день скачать торрент
    Летний день смотреть онлайн
    Cкачать фильм Летний день бесплатно
    Летний день скачать торрент в хорошем качестве
    Летний день смотреть онлайн бесплатно в хорошем качестве


    Вы не можете начинать темы
    Вы не можете отвечать на сообщения
    Вы не можете редактировать свои сообщения
    Вы не можете удалять свои сообщения
    Вы не можете голосовать в опросах
    Вы не можете прикреплять файлы к сообщениям
    Вы можете скачивать файлы