1 сезон

1 сезон

iTunes

1

КиноПоиск HD

Кинопоиск HD

iTunes

13

1 сезон

RePack

30

Новинка

ВАЖНО

ИГРА 18+

pack

RePack

MK11
pack

Легкие деньги

RePack

jed

RePack

fifa19

RePack

RDR2

RePack

NEED FOR SPEED™ PAYBACK

4 сезон

9 сезон

Бесстыжие 9 сезон

Все сериалы

все сериалы на PB.wtf

RePack

FAR CRY 5
  
Magnet ссылка

Клетка для кроликов / Rabbit-Proof Fence (Филлип Нойс / Phillip Noyce) [2002, Австралия, драма, приключения, история, DVDRip,Профессиональный (многоголосый, закадровый) pb.wtf

Клетка для кроликов через торрент pb.wtf

Размер: 1.45 GB | Добавлен: 6 лет 11 мес. назад | Торрент скачан:90 раз
Скачать  

18-04-2014 15:17 Клетка для кроликов Скачать торрент  

Клетка для кроликов / Rabbit-Proof Fence
Год выпуска: 2002
Страна: Австралия
Жанр: драма, приключения, история
Продолжительность: 01:30:00
Перевод: Профессиональный (многоголосый, закадровый)
Субтитры: Нет

Режиссер: Филлип Нойс / Phillip Noyce
В ролях: Эверлин Сампи (Molly Craig), Тиана Сансбэри (Daisy Craig Kadibill), Лаура Монахэн (Gracie Fields), Ниджали Лоуфорд (Maud - Molly's Mother), Дэвид Галпилил (Moodoo), Кеннет Брана (A.O. Neville), Миарн Лоуфорд (Molly's Grandmother), Дебора Мэйлман (Mavis), Джейсон Кларк (Constable Riggs), Наташа Вэнганин (Nina, Dormitory Boss), Гарри МакДональд (Mr. Neal at Moore River), Рой Биллинг (Police Inspector)

Описание: В начале прошлого века «цивилизованные» белые австралийцы пытались приручить своих «младших братьев», местных аборигенов. Приручив, использовать их для своих бытовых нужд. Для этого, к примеру, создавались специальные школы, в которых девочек обучали быть прислугами в обеспеченных семьях белых переселенцев.
В одну из таких школ и попадают 14-летняя Молли, ее 8-летняя сестра Дэйзи и их 10-летняя кузина Трэйси. В неволе девочки долго не выдерживают, бегут обратно домой, который теперь от них - на расстоянии в полторы тысячи миль и оказываются совсем одни в пустынной местности, где только ограждение против кроликов остается их проводником по дороге в родной дом.

kinopoisk.ru: 7.767 (657)
imdb.com: 7.50 (20 395)
MPAA: PG - Рекомендуется присутствие родителей

Качество: DVDRip
Формат: AVI
Видео кодек: XviD
Аудио кодек: AC3
Видео: XviD, 720x544 (4:3), 1915 kbps, 25 fps, 0,196 bpp
Аудио: AC3 / 5.1 / 48 kHz / 384 kbps / 16 bit

Релиз от:
General
Complete name : E:\закачки\Kletka.dla.krolikov.2002.P.DVDRip.FilmRus.avi
Format : AVI
Format/Info : Audio Video Interleave
File size : 1.45 GiB
Duration : 1h 30mn
Overall bit rate : 2 310 Kbps
Writing application : VirtualDubMod 1.5.10.3 | (build 2550/release)
Writing library : VirtualDubMod build 2550/release

Video
ID : 0
Format : MPEG-4 Visual
Format profile : Advanced Simple@L5
Format settings, BVOP : 2
Format settings, QPel : No
Format settings, GMC : No warppoints
Format settings, Matrix : Default (H.263)
Codec ID : XVID
Codec ID/Hint : XviD
Duration : 1h 30mn
Bit rate : 1 916 Kbps
Width : 720 pixels
Height : 544 pixels
Display aspect ratio : 4:3
Frame rate : 25.000 fps
Color space : YUV
Chroma subsampling : 4:2:0
Bit depth : 8 bits
Scan type : Progressive
Compression mode : Lossy
Bits/(Pixel*Frame) : 0.196
Stream size : 1.20 GiB (83%)
Writing library : XviD 64

Audio
ID : 1
Format : AC-3
Format/Info : Audio Coding 3
Mode extension : CM (complete main)
Codec ID : 2000
Duration : 1h 30mn
Bit rate mode : Constant
Bit rate : 384 Kbps
Channel(s) : 6 channels
Channel positions : Front: L C R, Side: L R, LFE
Sampling rate : 48.0 KHz
Bit depth : 16 bits
Compression mode : Lossy
Stream size : 247 MiB (17%)
Alignment : Split accross interleaves
Interleave, duration : 40 ms (1.00 video frame)
Interleave, preload duration : 500 ms
pb.wtf



Скачать Клетка для кроликов через торрент http://i33.fastpic.ru/big/2014/0210/5d/ff2e7422cffd0b1849a783787030775d.jpg Скачать фильм Клетка для кроликов через торрент бесплантно в хорошем качестве Описание: В начале прошлого века «цивилизованные» белые австралийцы пытались приручить своих «младших братьев», местных аборигенов. ... 10 10 6
Info! Серебряная раздача, засчитывается только 50% скачанного.
Торрент: Зарегистрирован [2014-04-18 15:17] · скачан: 90 раз
Статус: √ проверено
Размер: 1.45 GB
Как cкачать? Как скачать Клетка для кроликов через торрент | UTorrent

28-11-2019 20:33  

Отключить всю рекламу на сайте

18-04-2014 19:49 Клетка для кроликов Скачать торрент  

Ух-качяю,ходит молва что фильм очень достойный.Релизёру спасибо.pb.wtf



    Дорогой пользователь! Огромная просьба, поблагодарите релизера, оцените раздачу и оставьте свои комментарий, если Вы скачали Клетка для кроликов через торрент бесплатно! Внесите свою лепту в развитие PiratBit!
    Комментировать посты могут только пользователи прошедшие не сложную регистрацию
    Показать сообщения:    

    Клетка для кроликов через торрент
    Скачать бесплатно Клетка для кроликов
    Клетка для кроликов скачать торрент
    Клетка для кроликов смотреть онлайн
    Cкачать фильм Клетка для кроликов бесплатно
    Клетка для кроликов скачать торрент в хорошем качестве
    Клетка для кроликов смотреть онлайн бесплатно в хорошем качестве


    Вы не можете начинать темы
    Вы не можете отвечать на сообщения
    Вы не можете редактировать свои сообщения
    Вы не можете удалять свои сообщения
    Вы не можете голосовать в опросах
    Вы не можете прикреплять файлы к сообщениям
    Вы можете скачивать файлы