1 сезон

1 сезон

iTunes

1

КиноПоиск HD

Кинопоиск HD

iTunes

13

1 сезон

RePack

30

Новинка

ВАЖНО

ИГРА 18+

pack

RePack

MK11
pack

Легкие деньги

RePack

jed

RePack

fifa19

RePack

RDR2

RePack

NEED FOR SPEED™ PAYBACK

4 сезон

9 сезон

Бесстыжие 9 сезон

Все сериалы

все сериалы на PB.wtf

RePack

FAR CRY 5
  
Magnet ссылка

Страсти Христовы / Passion of the Christ (Мел Гибсон) [2004 г., драма, DVDRip, Профессиональный многоголосый] pb.wtf

Страсти Христовы через торрент pb.wtf

Размер: 2.05 GB | Добавлен: 7 лет назад | Торрент скачан:97 раз
Скачать  

18-04-2014 21:50 Страсти Христовы Скачать торрент  

Страсти Христовы / Passion of the Christ
Год выпуска: 2004
Страна: США
Жанр: драма
Продолжительность: 02:06:34
Перевод: Профессиональный многоголосый

В ролях: Джеймс Кэйвизел, Моника Беллуччи, Розалинда Челентано, Серджио Рубини, Христо Живков

Описание: Этот фильм о последних двенадцати часах жизни Иисуса из Назарета. Действие начинается в Гефсиманском саду, куда Иисус пришел помолиться после тайной вечери. Иисус сопротивляется искушениям, которым подвергает его сатана. Преданный Иудой Искариотом, Иисус арестован. Его приводят назад в Иерусалим, где предводители фарисеев обвиняют его в богохульстве, и суд над ним завершается смертным приговором...

Качество: DVDRip
Формат: AVI
Видео кодек: XviD
Аудио кодек: AC3
Видео: MPEG4, XviD, 720x544 (4:3), 23.976 fps, 1 862 Kbps (0.198 bit/pixel)
Аудио: AC-3, 48.0 KHz, 6 ch, 448 Kbps, CBR (Russian)

General
Complete name : C:\Users\xxx\Downloads\Passion of the Christ.avi
Format : AVI
Format/Info : Audio Video Interleave
Format profile : OpenDML
File size : 2.05 GiB
Duration : 2h 6mn
Overall bit rate : 2 319 Kbps
Writing application : VirtualDubMod 1.5.4.1 (build 2178/release)
Writing library : VirtualDubMod build 2178/release

Video
ID : 0
Format : MPEG-4 Visual
Format profile : Advanced Simple@L5
Format settings, BVOP : 1
Format settings, QPel : No
Format settings, GMC : No warppoints
Format settings, Matrix : Custom
Codec ID : XVID
Codec ID/Hint : XviD
Duration : 2h 6mn
Bit rate : 1 862 Kbps
Width : 720 pixels
Height : 544 pixels
Display aspect ratio : 4:3
Frame rate : 23.976 fps
Color space : YUV
Chroma subsampling : 4:2:0
Bit depth : 8 bits
Scan type : Progressive
Compression mode : Lossy
Bits/(Pixel*Frame) : 0.198
Stream size : 1.65 GiB (80%)
Writing library : XviD 1.1.2 (UTC 2006-11-01)

Audio
ID : 1
Format : AC-3
Format/Info : Audio Coding 3
Mode extension : CM (complete main)
Format settings, Endianness : Big
Codec ID : 2000
Duration : 2h 6mn
Bit rate mode : Constant
Bit rate : 448 Kbps
Channel(s) : 6 channels
Channel positions : Front: L C R, Side: L R, LFE
Sampling rate : 48.0 KHz
Bit depth : 16 bits
Compression mode : Lossy
Stream size : 406 MiB (19%)
Alignment : Split accross interleaves
Interleave, duration : 96 ms (2.30 video frames)
Interleave, preload duration : 96 ms
Language : Russian


pb.wtf



Скачать Страсти Христовы через торрент http://i59.fastpic.ru/big/2014/0419/0b/fcd3fb446d2aa9c89eb0e68ad721120b.jpg Скачать фильм Страсти Христовы через торрент бесплантно в хорошем качестве Описание: Этот фильм о последних двенадцати часах жизни Иисуса из Назарета. Действие начинается в Гефсиманском саду, куда Иисус пришел ... 10 10 11
Info! Золотая раздача, скачанное не засчитывается.
Торрент: Зарегистрирован [2014-04-18 21:50] · скачан: 97 раз
Статус: √ проверено
Размер: 2.05 GB
Как cкачать? Как скачать Страсти Христовы через торрент | UTorrent

% Раздел Тема Автор DL S | L
Фильмы (HD 720p, 1080p) (48-60 fps) [ 10.98 GB ] Страсти Христовы / The Passion of the Christ [2004 история BDRip 720p / 60 FPS AUS Transfer MVO DVO AVO Original] Tiberiumsun69 Скачать
5 | 1
Фильмы [HD 720p, 1080p] (Хороший звук DUB, MVO) [ 4.73 GB ] Страсти Христовы / The Passion of the Christ [2004 BDRip 1080p [HEVC] MVO ] Мичман37 Скачать
1 | 0
Фильмы 2001-2005 [ 1.75 GB ] Страсти Христовы / The Passion of the Christ [2004 Религиозный исторический DVDRip] Дмитрий2009495 Скачать
1 | 0
Фильмы [HD 720p, 1080p] (Хороший звук DUB, MVO) [ 16.76 GB ] Страсти Христовы / The Passion of the Christ [2004 BDRip 1080p] MVO DVO 2 x AVO msltel Скачать
1 | 0
Фильмы [HD 720p, 1080p] (Хороший звук DUB, MVO) [ 9.6 GB ] Страсти Христовы / The Passion of the Christ [2004 BDRip 720p] MVO DVO 2 x AVO msltel Скачать
1 | 0
Фильмы [HD 720p, 1080p] (Хороший звук DUB, MVO) [ 11.73 GB ] Страсти Христовы / The Passion of the Christ [2004 трагедия BDRip 1080p MVO Original Armāyâ Sub] Assasinca Скачать
1 | 0
Фильмы 2001-2005 [ 1.46 GB ] Страсти Христовы / The Passion of the Christ [2004 история HDRip MVO лицензия] Dean24 Скачать
2 | 0

28-11-2019 20:33  

Отключить всю рекламу на сайте


19-04-2014 06:49 Страсти Христовы Скачать торрент  

Перевот в твоем релизе никакущий!pb.wtf



    Дорогой пользователь! Огромная просьба, поблагодарите релизера, оцените раздачу и оставьте свои комментарий, если Вы скачали Страсти Христовы через торрент бесплатно! Внесите свою лепту в развитие PiratBit!
    Комментировать посты могут только пользователи прошедшие не сложную регистрацию
    Показать сообщения:    

    Страсти Христовы через торрент
    Скачать бесплатно Страсти Христовы
    Страсти Христовы скачать торрент
    Страсти Христовы смотреть онлайн
    Cкачать фильм Страсти Христовы бесплатно
    Страсти Христовы скачать торрент в хорошем качестве
    Страсти Христовы смотреть онлайн бесплатно в хорошем качестве


    Вы не можете начинать темы
    Вы не можете отвечать на сообщения
    Вы не можете редактировать свои сообщения
    Вы не можете удалять свои сообщения
    Вы не можете голосовать в опросах
    Вы не можете прикреплять файлы к сообщениям
    Вы можете скачивать файлы