2 сезон

iTunes

MVO

1

2 сезон

iTunes

iTunes

1 сезон

RePack

30

Ultimate

ВАЖНО

ИГРА 18+

pack

RePack

MK11
pack

Легкие деньги

RePack

jed

RePack

fifa19

RePack

RDR2

RePack

NEED FOR SPEED™ PAYBACK

4 сезон

9 сезон

Бесстыжие 9 сезон

Все сериалы

все сериалы на PB.wtf

RePack

FAR CRY 5

Anonymous, добрый вечер, мы не успеваем собрать деньги на оплату серверов за декабрь и январь, помогите нам пожалуйста в это трудное время. В качестве благодарности мы отключим Вам всю рекламу на сайте (укажите свой ник в строку Ваше имя)!

×
  
Magnet ссылка

Забойный реванш / Grudge Match (Питер Сигал) [2013 г., Комедия, BDRip, Дубляж + AVO «Гоблин»] pb.wtf

Забойный реванш через торрент pb.wtf

Размер: 2.55 GB | Добавлен: 6 лет 9 мес. назад | Торрент скачан:300 раз
Скачать  

19-04-2014 05:38 Забойный реванш Скачать торрент  

Забойный реванш / Grudge Match
Год выпуска: 2013
Страна: США
Жанр: Комедия
Продолжительность: 01:53:16
Перевод: Дубляж (Blu-ray CEE), дубляж (iTunes - Украинский), авторский (одноголосый закадровый) Дмитрий «Гоблин» Пучков (Blu-ray CEE)
Субтитры: Русские, Украинские (полные, форсированные), Английские [Отдельным файлом]

Режиссер: Питер Сигал
Продюссер: Майкл Юинг, Билл Гербер, Марк Стивен Джонсон
В ролях: Роберт Де Ниро, Сильвестр Сталлоне, Алан Аркин, Ким Бейсингер, Кевин Харт, Джон Бернтал, Кемден Грэй, Пол Бен-Виктор, ЭлЭл Кул Джей, Энтони Андерсон, Джим Лэмпли, Рич Литтл



Дата мировой премьеры: 16 декабря 2013
Дата российской премьеры: 16 января 2014
Дата выхода DVD релиза: 30 апреля 2014

Описание: Фильм расскажет о двух бывших боксерах, решающих вернуться на ринг ради финального матча, который должен будет уладить все их разногласия.

Качество: BDRip
Формат: AVI
Видео кодек: XviD
Аудио кодек: AC3
Видео: 720x400, 23,976 кадра/сек, ~1662 kbps
Аудио#1: 8 kHz, AC3 Dolby Digital, 3/2 (L,C,R,l,r) + LFE ch, ~448 kbps - Дубляж, Blu-ray CEE
Аудио#2: 48 kHz, AC3 Dolby Digital, 2/0 (L,R) ch, ~192 kbps - Дубляж, iTunes - Украинский
Аудио#3: 48 kHz, AC3 Dolby Digital, 3/2 (L,C,R,l,r) + LFE ch, ~448 kbps - Авторский (одноголосый закадровый) Дмитрий «Гоблин» Пучков, Blu-ray CEE
Аудио#4: 48 kHz, AC3 Dolby Digital, 3/2 (L,C,R,l,r) + LFE ch, ~448 kbps - Оригинал (Английский) / внешняя
скриншот   скриншот   скриншот   скриншот   скриншот  

Код:

Общее
Полное имя : D:\Рипы\Grudge.Match.2013.BDRip.2xRus.Ukr.Eng\Grudge Match.2013.BDRip.avi
Формат : AVI
Формат/Информация : Audio Video Interleave
Профиль формата : OpenDML
Размер файла : 2,19 Гбайт
Продолжительность : 1 ч. 53 м.
Общий поток : 2774 Кбит/сек
Название фильма : Grudge Match.2013.BDRip
Режиссёр : rip by maygli
Программа кодирования : VirtualDubModRus 1.5.10.2 (build 2542/release)
Правообладатель : ... (RG Rulya74)

Видео
Идентификатор : 0
Формат : MPEG-4 Visual
Профиль формата : Advanced Simple@L5
Параметр BVOP формата : 1
Параметр QPel формата : Нет
Параметр GMC формата : Без точки перехода
Параметр матрицы формата : Выборочная
Идентификатор кодека : XVID
Идентификатор кодека/Подсказка : XviD
Продолжительность : 1 ч. 53 м.
Битрейт : 1662 Кбит/сек
Ширина : 720 пикселей
Высота : 400 пикселей
Соотношение сторон : 16:9
Частота кадров : 23,976 кадра/сек
Цветовое пространство : YUV
Субдискретизация насыщенности : 4:2:0
Битовая глубина : 8 бит
Тип развёртки : Прогрессивная
Метод сжатия : С потерями
Бит/(Пиксели*Кадры) : 0.241
Размер потока : 1,31 Гбайт (60%)
Библиотека кодирования : XviD 65

Аудио #1
Идентификатор : 1
Формат : AC-3
Формат/Информация : Audio Coding 3
Расширение режима : CM (complete main)
Параметр Endianness формата : Big
Идентификатор кодека : 2000
Продолжительность : 1 ч. 53 м.
Вид битрейта : Постоянный
Битрейт : 448 Кбит/сек
Каналы : 6 каналов
Расположение каналов : Front: L C R, Side: L R, LFE
Частота : 48,0 КГц
Битовая глубина : 16 бит
Метод сжатия : С потерями
Размер потока : 363 Мбайт (16%)
Выравнивание : Разделение по промежуткам
Продолжительность промежутка : 42 мс. (1,00 видеокадр)
Время предзагрузки промежутка : 500 мс.
Заголовок : Дубляж, Blu-ray CEE

Аудио #2
Идентификатор : 2
Формат : AC-3
Формат/Информация : Audio Coding 3
Расширение режима : CM (complete main)
Параметр Endianness формата : Big
Идентификатор кодека : 2000
Продолжительность : 1 ч. 53 м.
Вид битрейта : Постоянный
Битрейт : 192 Кбит/сек
Каналы : 2 канала
Расположение каналов : Front: L R
Частота : 48,0 КГц
Битовая глубина : 16 бит
Метод сжатия : С потерями
Размер потока : 156 Мбайт (7%)
Выравнивание : Разделение по промежуткам
Продолжительность промежутка : 42 мс. (1,00 видеокадр)
Время предзагрузки промежутка : 500 мс.
Заголовок : Дубляж, iTunes - Украинский

Аудио #3
Идентификатор : 3
Формат : AC-3
Формат/Информация : Audio Coding 3
Расширение режима : CM (complete main)
Параметр Endianness формата : Big
Идентификатор кодека : 2000
Продолжительность : 1 ч. 53 м.
Вид битрейта : Постоянный
Битрейт : 448 Кбит/сек
Каналы : 6 каналов
Расположение каналов : Front: L C R, Side: L R, LFE
Частота : 48,0 КГц
Битовая глубина : 16 бит
Метод сжатия : С потерями
Размер потока : 363 Мбайт (16%)
Выравнивание : Разделение по промежуткам
Продолжительность промежутка : 42 мс. (1,00 видеокадр)
Время предзагрузки промежутка : 500 мс.
Заголовок : Авторский (одноголосый закадровый) Дмитрий «Гоблин» Пучков, Blu-ray CEE

Общее
Полное имя : D:\Рипы\Grudge.Match.2013.BDRip.2xRus.Ukr.Eng\Grudge Match.2013.BDRip.Eng.ac3
Формат : AC-3
Формат/Информация : Audio Coding 3
Размер файла : 363 Мбайт
Продолжительность : 1 ч. 53 м.
Режим общего битрейта : Постоянный
Общий поток : 448 Кбит/сек

Аудио
Формат : AC-3
Формат/Информация : Audio Coding 3
Расширение режима : CM (complete main)
Параметр Endianness формата : Big
Продолжительность : 1 ч. 53 м.
Вид битрейта : Постоянный
Битрейт : 448 Кбит/сек
Каналы : 6 каналов
Расположение каналов : Front: L C R, Side: L R, LFE
Частота : 48,0 КГц
Битовая глубина : 16 бит
Метод сжатия : С потерями
Размер потока : 363 Мбайт (100%)



pb.wtf



Скачать Забойный реванш через торрент http://pic.kartinco.top/images/6/9mkp5.jpg Скачать фильм Забойный реванш через торрент бесплантно в хорошем качестве Описание: Фильм расскажет о двух бывших боксерах, решающих вернуться на ринг ради финального матча, который должен будет уладить все их ... 9.9 10 18
Info! Золотая раздача, скачанное не засчитывается.
Торрент: Зарегистрирован [2014-04-19 05:38] · скачан: 300 раз
Статус: √ проверено
Размер: 2.55 GB
Как cкачать? Как скачать Забойный реванш через торрент | UTorrent

% Раздел Тема Автор DL S | L
Фильмы 2013 [DVDrip, WEB-DLRip, HDrip] [ 1.82 GB ] Забойный реванш / Grudge Match [2013 HDRip-AVC] ] От R.G. PiratFilms White Smoke Скачать
1 | 0
Фильмы (DVD фильмы) [ 6.1 GB ] Забойный реванш / Grudge Match [2013 DVD9] R5 voovaz Скачать
1 | 0
Фильмы 2013 [DVDrip, WEB-DLRip, HDrip] [ 1.46 GB ] Забойный реванш / Grudge Match [2013 HDRip ] Seedtank Скачать
1 | 0
Фильмы [HD 720p, 1080p] (Хороший звук DUB, MVO) [ 5.76 GB ] Забойный реванш / Grudge Match [2013 BDRip 720p] diletant Скачать
1 | 0
Фильмы 2013 [DVDrip, WEB-DLRip, HDrip] [ 2.19 GB ] Забойный реванш / Grudge Match [2013 BDRip ] coc900 Скачать
1 | 0
Фильмы 2013 [DVDrip, WEB-DLRip, HDrip] [ 2.92 GB ] Забойный реванш / Grudge Match [2013 BDRip-AVC] DUB potroks Скачать
1 | 0
Фильмы 2013 [DVDrip, WEB-DLRip, HDrip] [ 3.25 GB ] Забойный реванш / Grudge Match [2013 BDRip гоблин] Alex_E Скачать
1 | 0

28-11-2019 20:33  

Отключить всю рекламу на сайте

    Дорогой пользователь! Огромная просьба, поблагодарите релизера, оцените раздачу и оставьте свои комментарий, если Вы скачали Забойный реванш через торрент бесплатно! Внесите свою лепту в развитие PiratBit!
    Комментировать посты могут только пользователи прошедшие не сложную регистрацию
    Показать сообщения:    

    Забойный реванш через торрент
    Скачать бесплатно Забойный реванш
    Забойный реванш скачать торрент
    Забойный реванш смотреть онлайн
    Cкачать фильм Забойный реванш бесплатно
    Забойный реванш скачать торрент в хорошем качестве
    Забойный реванш смотреть онлайн бесплатно в хорошем качестве


    Вы не можете начинать темы
    Вы не можете отвечать на сообщения
    Вы не можете редактировать свои сообщения
    Вы не можете удалять свои сообщения
    Вы не можете голосовать в опросах
    Вы не можете прикреплять файлы к сообщениям
    Вы можете скачивать файлы