Ссылка на приватное зеркало нашего сайта всего за 1$. Внимание количество ограничено!!!

2 сезон

iTunes

1 сезон

1

2 сезон

2 сезон

iTunes

1 сезон

RePack

30

Ultimate

ВАЖНО

ИГРА 18+

pack

RePack

MK11
pack

Забери бонус

RePack

jed

!!Акция!!

Alien_Rage

RePack

fifa19

RePack

Assassins Creed: Odyssey

RePack

NEED FOR SPEED™ PAYBACK

4 сезон

9 сезон

Бесстыжие 9 сезон

Все сериалы

все сериалы на PB.wtf

RePack

FAR CRY 5
  

Пункт Назначения / Final Destination (Джеймс Вонг) [2000 г., Ужасы, фантастика, триллер, детектив, BD-Remux, Дубляж] pb.wtf

Пункт Назначения через торрент pb.wtf

Размер: 18.29 GB | Добавлен: 6 лет 7 мес. назад | Торрент скачан:0 раз
Скачать  

19-04-2014 14:37 Пункт Назначения Скачать торрент  

Пункт Назначения / Final Destination
Год выпуска: 2000
Страна: США
Жанр: Ужасы, фантастика, триллер, детектив
Продолжительность: 01:38:01
Перевод: дубляж (невафильм)+Профессиональный многоголосый - Позитив-Мультимедиа+
Профессиональный многоголосый - Рен ТВ+Авторский - Андрей Гаврилов+
Любительский двухголосый - GarsuPasaulis+Оригинал

Субтитры: Русские, английские

Режиссер: Джеймс Вонг

В ролях: Девон Сава, Эли Лартер, Керр Смит, Кристен Клоук, Дэниэл Робак, Роджер Гуэнвёр Смит, Чэд Донелла, Шонн Уильям Скотт, Тони Тодд, Аманда Детмер, Брендан Фер, Форбс Энгус, Лиза Мари Кэрук, Кристин Шателейн, Барбара Тайсон, Роберт Уизден, Рэнди Стоун, Марк Холден, Мэррет Грин, Фред Китинг, Джон Хэйнсуорт, Мартин Кристофер, Трой Йорк, Наташа Морли, Марк Мэрриот, Кристина Матисик, Николь Роберт, Пит Этертон

Описание: Алекс летит развлекаться со всем классом в Париж на 10 дней. Отец говорит, что детство кончилось. В аэропорту он узнает, что время вылета совпадает с его днем рождения. Потом, повинуясь плохому предчувствию, Алекс покидает самолет вместе с еще семью людьми. И тут взрывается их самолет… Но позже оставшиеся в живых пассажиры гибнут один за другим, и Алекс понимает: смерть не обманешь — это только отсрочка…

Качество: BD-Remux
Формат: MKV
Видео кодек: H.264
Аудио кодек: AC3-DTS-TrueHD
Видео: MPEG-4 AVC, (1920x1080),21 300 Кбит/с, 23976 кадра/сек
Аудио#1: AC-3, 6 ch, 640 kbps (Rus) 48.0 KHz дубляж (невафильм)
Аудио#2: AC-3, 6 ch, 384kbps (Rus) 48.0 KHz Профессиональный многоголосый - Позитив-Мультимедиа
Аудио#3: AC-3 2 ch, 192 kbps (Rus) 48.0 KHz Профессиональный многоголосый - Рен ТВ
Аудио#4: DTS, 6 ch, 1509 kbps (Rus) 48.0 KHz Авторский - Андрей Гаврилов
Аудио#5: AC-3 2 ch, 192 kbps (Rus) 48.0 KHz Любительский двухголосый - GarsuPasaulis
Аудио#6: TrueHD, 6 ch, 1644 Кбит/с (Eng) 48.0 KHz Оригинал
скриншот   скриншот   скриншот  

Тип потока: Видео
Длительность: 01:38:02
Кодек: VC-1
Кодек/профиль: Advanced@L3
Кодек/ID: V_MS/VFW/FOURCC / WVC1
Размеры изображения: 1920 x 1080 (16:9)
Частота кадров: 23.976 fps
Частота кадров/тип: Constant
Метод сжатия: Lossy
Цветовое пространство: YUV
Тип развёртки: Progressive
Колориметрия: 4:2:0
Глубина: 8 bits
:
Тип потока: Звук #1
Язык: Russian
Название: Дублированный - «Невафильм»
Длительность: 01:38:02.966
Кодек: AC-3
Кодек/описание: Audio Coding 3
Кодек/ID: A_AC3
Частота дискретизации: 48.0 KHz
Каналов: 6 channels
Битрейт: 640 Kbps
Битрейт/тип: Constant
Размер потока: 449 MiB (2%)
Глубина: 16 bits
Метод сжатия: Lossy
:
Тип потока: Звук #2
Язык: Russian
Название: Профессиональный многоголосый - Позитив-Мультимедиа
Длительность: 01:38:02.966
Кодек: AC-3
Кодек/описание: Audio Coding 3
Кодек/ID: A_AC3
Частота дискретизации: 48.0 KHz
Каналов: 6 channels
Битрейт: 384 Kbps
Битрейт/тип: Constant
Размер потока: 269 MiB (1%)
Глубина: 16 bits
Метод сжатия: Lossy
:
Тип потока: Звук #3
Язык: Russian
Название: Профессиональный многоголосый - Рен ТВ
Длительность: 01:38:02.966
Кодек: AC-3
Кодек/описание: Audio Coding 3
Кодек/ID: A_AC3
Частота дискретизации: 48.0 KHz
Каналов: 2 channels
Битрейт: 192 Kbps
Битрейт/тип: Constant
Размер потока: 135 MiB (1%)
Глубина: 16 bits
Метод сжатия: Lossy
:
Тип потока: Звук #4
Язык: Russian
Название: Авторский - Андрей Гаврилов
Длительность: 01:38:02.966
Кодек: DTS
Кодек/описание: Digital Theater Systems
Кодек/профиль: MA / Core
Кодек/ID: A_DTS
Частота дискретизации: 48.0 KHz
Каналов: 6 channels
Битрейт: Unknown / 1 509 Kbps
Битрейт/тип: Variable
Глубина: 16 bits
Метод сжатия: Lossless / Lossy
:
Тип потока: Звук #5
Язык: Russian
Название: Любительский двухголосый - GarsuPasaulis
Длительность: 01:38:02.966
Кодек: AC-3
Кодек/описание: Audio Coding 3
Кодек/ID: A_AC3
Частота дискретизации: 48.0 KHz
Каналов: 2 channels
Битрейт: 192 Kbps
Битрейт/тип: Constant
Размер потока: 135 MiB (1%)
Глубина: 16 bits
Метод сжатия: Lossy
:
Тип потока: Звук #6
Язык: English
Длительность: 01:38:02.966
Кодек: TrueHD
Кодек/ID: A_TRUEHD
Частота дискретизации: 48.0 KHz
Каналов: 6 channels
Битрейт/тип: Variable
Метод сжатия: Lossless
:
Тип потока: Субтитры #1
Язык: Russian
Формат: PGS
Формат/подробно: The same subtitle format used on BDs/HD-DVDs
:
Тип потока: Субтитры #2
Язык: English
Формат: PGS

pb.wtf



Скачать Пункт Назначения через торрент http://pic.kartinco.top/images/6/s73xz.jpg Скачать фильм Пункт Назначения через торрент бесплантно в хорошем качестве Описание: Алекс летит развлекаться со всем классом в Париж на 10 дней. Отец говорит, что детство кончилось. В аэропорту он узнает, что ... 9.9 10 9
Info! Золотая раздача, скачанное не засчитывается.
Торрент: Зарегистрирован [2014-04-19 14:37] · скачан: 0 раз
Статус: √ проверено
Размер: 18.29 GB
Как cкачать? Как скачать Пункт Назначения через торрент | qTorrent

% Раздел Тема Автор DL S | L
3D Фильмы [ 17.18 GB ] Пункт назначения 4 в 3Д / The Final Destination 4 3D [2009 BDRip 1080p] [OverUnder / Вертикальная ] DUB [лицензия] serega768 Скачать
1 | 0
3D Фильмы [ 14.89 GB ] Пункт назначения 5 в 3Д / Final Destination 5 3D [2011 BDRip 1080p] OverUnder / Вертикальная стереопара serega768 Скачать
1 | 0
Фильмы [HD 720p, 1080p] (Хороший звук DUB, MVO) [ 3.78 GB ] Пункт назначения 5 / Final Destination 5 [2011 BDRip 1080p HEVC ] Мичман37 Скачать
1 | 0
Фильмы [HD 720p, 1080p] (Хороший звук DUB, MVO) [ 3.56 GB ] Пункт назначения 4 / The Final Destination [2009 BDRip 1080p HEVC ] Мичман37 Скачать
1 | 0
Фильмы [HD 720p, 1080p] (Хороший звук DUB, MVO) [ 3.88 GB ] Пункт назначения 3 / Final Destination 3 [2006 BDRip 1080p HEVC ] Мичман37 Скачать
1 | 0
Фильмы [HD 720p, 1080p] (Хороший звук DUB, MVO) [ 3.83 GB ] Пункт назначения 2 / Final Destination 2 [2003 BDRip 1080p HEVC ] Мичман37 Скачать
1 | 0
Фильмы [HD 720p, 1080p] (Хороший звук DUB, MVO) [ 3.77 GB ] Пункт назначения / Final Destination [2000 BDRip 1080p HEVC ] Мичман37 Скачать
1 | 0

28-11-2019 20:33  

Отключить всю рекламу на сайте

    Дорогой пользователь! Огромная просьба, поблагодарите релизера, оцените раздачу и оставьте свои комментарий, если Вы скачали Пункт Назначения через торрент бесплатно! Внесите свою лепту в развитие PiratBit!
    Комментировать посты могут только пользователи прошедшие не сложную регистрацию
    Показать сообщения:    

    Пункт Назначения через торрент
    Скачать бесплатно Пункт Назначения
    Пункт Назначения скачать торрент
    Пункт Назначения смотреть онлайн
    Cкачать фильм Пункт Назначения бесплатно
    Пункт Назначения скачать торрент в хорошем качестве
    Пункт Назначения смотреть онлайн бесплатно в хорошем качестве


    Вы не можете начинать темы
    Вы не можете отвечать на сообщения
    Вы не можете редактировать свои сообщения
    Вы не можете удалять свои сообщения
    Вы не можете голосовать в опросах
    Вы не можете прикреплять файлы к сообщениям
    Вы можете скачивать файлы