Ссылка на приватное зеркало нашего сайта всего за 1$. Внимание количество ограничено!!!

2 сезон

iTunes

1 сезон

1

iTunes

iTunes

iTunes

1 сезон

RePack

30

ИГРА 18+

pack

ВАЖНО

!!Акция!!

Alien_RageХит недели

RePack

MK11
pack

Забери бонус

RePack

jed

!!Акция!!

Alien_Rage

RePack

fifa19

RePack

Assassins Creed: Odyssey

RePack

NEED FOR SPEED™ PAYBACK

4 сезон

9 сезон

Бесстыжие 9 сезон

Все сериалы

все сериалы на PB.wtf

RePack

FAR CRY 5
  

Космический пират Харлок / Space Pirate Captain Harlock (Синдзи Арамаки / Shinji Aramaki) [2013, Япония, США, Франция, мультфильм, фантастика, боевик, HDRip,Авторский (одноголосый) (Ю. Живов)/ Расширенная (японская) версия pb.wtf

Космический пират Харлок через торрент pb.wtf

Размер: 1.44 GB | Добавлен: 6 лет 6 мес. назад | Торрент скачан:742 раза
Скачать  

19-04-2014 16:15 Космический пират Харлок Скачать торрент  

Космический пират Харлок / Space Pirate Captain Harlock

«Is he an enemy of the state... or its last hope?»
  • Год выпуска: 2013
  • Страна:Япония, США, Франция
  • Жанр:мультфильм, фантастика, боевик, приключения
  • Продолжительность:01:55:06
  • Перевод:Авторский (одноголосый) (Ю. Живов)
  • Субтитры: Нет
  • Режиссер: Синдзи Арамаки / Shinji Aramaki

  • В ролях:

    Шун Огури (Captain Harlock, озвучка), Аои Ю (Miime, озвучка), Аяно Фукуда (Tori-san, озвучка), Арата Фурута (Yattaran, озвучка), Киёси Кобаяси (Roujin, озвучка), Харума Миура (Yama, озвучка), Морикава Тосиюки (Isora, озвучка), Тикао Оцука (Soukan, озвучка), Маая Сакамото (Nami, озвучка), Миюки Савасиро (Kei, озвучка)

    • Описание:
      Далекое будущее. Преступная корпорация Гайя стала злейшим врагом Земли, отобрав у людей все: свободу, дом, будущее... Казалось, что надежды на спасение нет... Но, появился Он - космический пират Харлок, капитан призрачного корабля Аркадия. Беглец, готовый сражаться за Землю. Кто Он, герой или преступник?..

    Мировая премьера:3 сентября 2013

    • Качество: HDRip
    • Формат: AVI
    • Видео кодек: XviD
    • Аудио кодек:AC3
    • Видео: XviD, 720x304 (2.35:1), 1402 kbps, 23,976 fps, 0,267 bpp
    • Аудио: AC3 / 5.1 / 48 kHz / 384 kbps / 16 bit


    Код:

    General
    Complete name                            : D:\Торенты\Kosmicheskij.pirat.Harlok.2013.HDRip.1.46GB.avi
    Format                                   : AVI
    Format/Info                              : Audio Video Interleave
    File size                                : 1.44 GiB
    Duration                                 : 1h 55mn
    Overall bit rate                         : 1 796 Kbps
    Writing application                      : VirtualDubMod 1.5.10.2 (build 2540/release)
    Writing library                          : VirtualDubMod build 2540/release

    Video
    ID                                       : 0
    Format                                   : MPEG-4 Visual
    Format profile                           : Advanced Simple@L5
    Format settings, BVOP                    : 2
    Format settings, QPel                    : No
    Format settings, GMC                     : No warppoints
    Format settings, Matrix                  : Default (MPEG)
    Codec ID                                 : XVID
    Codec ID/Hint                            : XviD
    Duration                                 : 1h 55mn
    Bit rate                                 : 1 403 Kbps
    Width                                    : 720 pixels
    Height                                   : 304 pixels
    Display aspect ratio                     : 2.35:1
    Frame rate                               : 23.976 fps
    Color space                              : YUV
    Chroma subsampling                       : 4:2:0
    Bit depth                                : 8 bits
    Scan type                                : Progressive
    Compression mode                         : Lossy
    Bits/(Pixel*Frame)                       : 0.267
    Stream size                              : 1.13 GiB (78%)
    Writing library                          : XviD 1.2.1 (UTC 2008-12-04)

    Audio
    ID                                       : 1
    Format                                   : AC-3
    Format/Info                              : Audio Coding 3
    Mode extension                           : CM (complete main)
    Codec ID                                 : 2000
    Duration                                 : 1h 55mn
    Bit rate mode                            : Constant
    Bit rate                                 : 384 Kbps
    Channel(s)                               : 6 channels
    Channel positions                        : Front: L C R, Side: L R, LFE
    Sampling rate                            : 48.0 KHz
    Bit depth                                : 16 bits
    Compression mode                         : Lossy
    Stream size                              : 316 MiB (21%)
    Alignment                                : Split accross interleaves
    Interleave, duration                     : 42 ms (1.00 video frame)
    Interleave, preload duration             : 500 ms

    Скриншоты:

    Каталог Новинок (Фильмы-трейлеры, Игры, Сериалы, Мультфильмы)

    © Оформление by Raven
    pb.wtf



  • Скачать Космический пират Харлок через торрент http://pic.kartinco.top/images/6/f4x6c.jpg Скачать фильм Космический пират Харлок через торрент бесплантно в хорошем качестве Описание:Далекое будущее. Преступная корпорация Гайя стала злейшим врагом Земли, отобрав у людей все: свободу, дом, будущее... Казалось, ... 9.6 10 22
    Info! Золотая раздача, скачанное не засчитывается.
    Торрент: Зарегистрирован [2014-04-19 16:15] · скачан: 742 раз
    Статус: √ проверено
    Размер: 1.44 GB
    Как cкачать? Как скачать Космический пират Харлок через торрент | qTorrent

    % Раздел Тема Автор DL S | L
    3D Мультфильмы [ 5.88 GB ] Космический пират Харлок / Space Pirate Captain Harlock [2013 мультфильм BDRip 1080p ] Вертикальная анаморфная стереопара / Расширенная версия Ворон Скачать
    1 | 0
    3D Мультфильмы [ 5.06 GB ] Космический пират Харлок / Space Pirate Captain Harlock [2013 мультфильм BDRip 1080p AVO + MVO ] Анаглиф / Расширенная версия slaventi-69 Скачать
    1 | 0
    Зарубежные Мультфильмы (BDRip 1080p, 720p, Blu-ray, BD-Remux) [ 4.54 GB ] Космический пират Харлок / Space Pirate Captain Harlock [2013 Япония мультфильм BDRip 720pАвторский от R.G. HD-Films / Расширенная версия Ворон Скачать
    1 | 0
    Иностранные мультфильмы [ 2.18 GB ] Космический пират Харлок / Space Pirate Captain Harlock [2013 Мультфильм BDRip-AVC] AVO [Ю.Живов]/ Расширенная версия potroks Скачать
    1 | 0

    28-11-2019 20:33  

    Отключить всю рекламу на сайте

    19-04-2014 16:51 Космический пират Харлок Скачать торрент  

    кто качал? как перевод? а то пред идущие раздачи были шлаковыеpb.wtf



    19-04-2014 17:39 Космический пират Харлок Скачать торрент  

    а перевод многоголосый будет?pb.wtf



    19-04-2014 22:21 Космический пират Харлок Скачать торрент  

    сэмпл есть не тупите)pb.wtf



    20-04-2014 11:03 Космический пират Харлок Скачать торрент  

    После просмотра, осталось множество вопросов по сюжету... :сonn:pb.wtf



      Дорогой пользователь! Огромная просьба, поблагодарите релизера, оцените раздачу и оставьте свои комментарий, если Вы скачали Космический пират Харлок через торрент бесплатно! Внесите свою лепту в развитие PiratBit!
      Комментировать посты могут только пользователи прошедшие не сложную регистрацию
      Показать сообщения:    

      Космический пират Харлок через торрент
      Скачать бесплатно Космический пират Харлок
      Космический пират Харлок скачать торрент
      Космический пират Харлок смотреть онлайн
      Cкачать фильм Космический пират Харлок бесплатно
      Космический пират Харлок скачать торрент в хорошем качестве
      Космический пират Харлок смотреть онлайн бесплатно в хорошем качестве


      Вы не можете начинать темы
      Вы не можете отвечать на сообщения
      Вы не можете редактировать свои сообщения
      Вы не можете удалять свои сообщения
      Вы не можете голосовать в опросах
      Вы не можете прикреплять файлы к сообщениям
      Вы можете скачивать файлы