1 сезон

1 сезон

iTunes

1

КиноПоиск HD

Кинопоиск HD

iTunes

13

1 сезон

RePack

30

Ultimate

ВАЖНО

ИГРА 18+

pack

RePack

MK11
pack

Легкие деньги

RePack

jed

RePack

fifa19

RePack

RDR2

RePack

NEED FOR SPEED™ PAYBACK

4 сезон

9 сезон

Бесстыжие 9 сезон

Все сериалы

все сериалы на PB.wtf

RePack

FAR CRY 5
  
Magnet ссылка

Банда Келли / Ned Kelly (Грегор Джордан) [2003, боевик, криминал, приключения, вестерн, биография, история, DVDRip] MVO pb.wtf

Банда Келли через торрент pb.wtf

Размер: 2.18 GB | Добавлен: 6 лет 11 мес. назад | Торрент скачан:129 раз
Скачать  

21-04-2014 18:09 Банда Келли Скачать торрент  

Банда Келли / Ned Kelly«История хорошего человека, которому пришлось стать плохим»

Год выпуска: 2003
Страна: Австралия , Великобритания , США , Франция
Жанр: боевик, криминал, приключения, вестерн, биография, история слова
Продолжительность: 01:45:22
Перевод: Профессиональный (многоголосый закадровый)

Режиссер: Грегор Джордан
Сценарий: Джон Майкл МакДона, Роберт Дрюи
Продюсер: Линда Хаус, Нельсон Восс, Тим Беван, ...

В ролях: Хит Леджер / Heath Ledger (Ned Kelly, $ 50 000 ), Орландо Блум / Orlando Bloom (Joseph Byrne), Джеффри Раш / Geoffrey Rush (Superintendent Francis Hare), Наоми Уоттс / Naomi Watts (Julia Cook), Джоэл Эдгертон / Joel Edgerton (Aaron Sherritt), Лоуренс Кинлан / Laurence Kinlan (Dan Kelly), Фил Барантини / Phil Barantini (Steve Hart), Керри Кондон / Kerry Condon (Kate Kelly)

Описание: Выходец из бедной семьи ирландских эмигрантов, сосланных в Австралию, Келли испытал на своей шкуре несправедливость колониальных властей и жесткость полицейских. Сколотив банду, куда вошли его родной брат Дэн и двое друзей — Джо и Стив, Келли принялся грабить банки в штате и быстро стал героем народных масс. Однажды они три дня держали в страхе целый городок. За поимку Неда Келли была назначена награда в 8 тысяч фунтов, но разбойникам постоянно удавалось скрыться…

Рейтинг MPAA: Лицам до 17 лет обязательно присутствие взрослого



Качество: DVDRip
Формат: AVI
Видео кодек: XviD
Аудио кодеk: AC3
Видео: 720x400 (16:9), 25.000 fps, XviD, 2 045 Kbps
Аудио:
Аудио #1: AC3, 448 Kbps, 48.0 KHz, 6 ch (Русский)
Аудио #2: AC3, 448 Kbps, 48.0 KHz, 6 ch (Английский)

Код:

General
Complete name                    : Банда Келли.avi
Format                           : AVI
Format/Info                      : Audio Video Interleave
Format profile                   : OpenDML
File size                        : 2.18 GiB
Duration                         : 1h 45mn
Overall bit rate                 : 2 959 Kbps
Director                         : derdevil13
Writing application              : VirtualDubMod 1.5.10.2 (build 2542/release)

Video
ID                               : 0
Format                           : MPEG-4 Visual
Format profile                   : Advanced Simple@L5
Format settings, BVOP            : Yes
Format settings, QPel            : No
Format settings, GMC             : No warppoints
Format settings, Matrix          : Default (MPEG)
Codec ID                         : XVID
Codec ID/Hint                    : XviD
Duration                         : 1h 45mn
Bit rate                         : 2 045 Kbps
Width                            : 720 pixels
Height                           : 400 pixels
Display aspect ratio             : 16:9
Frame rate                       : 25.000 fps
Color space                      : YUV
Chroma subsampling               : 4:2:0
Bit depth                        : 8 bits
Scan type                        : Progressive
Bits/(Pixel*Frame)               : 0.284
Stream size                      : 1.50 GiB (69%)
Writing library                  : XviD 1.2.1 (UTC 2008-12-04)

Audio #1
ID                               : 1
Format                           : AC-3
Format/Info                      : Audio Coding 3
Mode extension                   : CM (complete main)
Codec ID                         : 2000
Duration                         : 1h 45mn
Bit rate mode                    : Constant
Bit rate                         : 448 Kbps
Channel(s)                       : 6 channels
Channel positions                : Front: L C R, Side: L R, LFE
Sampling rate                    : 48.0 KHz
Bit depth                        : 16 bits
Stream size                      : 338 MiB (15%)
Alignment                        : Split accross interleaves
Interleave, duration             : 40 ms (1.00 video frame)
Interleave, preload duration     : 500 ms

Audio #2
ID                               : 2
Format                           : AC-3
Format/Info                      : Audio Coding 3
Mode extension                   : CM (complete main)
Codec ID                         : 2000
Duration                         : 1h 45mn
Bit rate mode                    : Constant
Bit rate                         : 448 Kbps
Channel(s)                       : 6 channels
Channel positions                : Front: L C R, Side: L R, LFE
Sampling rate                    : 48.0 KHz
Bit depth                        : 16 bits
Stream size                      : 338 MiB (15%)
Alignment                        : Split accross interleaves
Interleave, duration             : 40 ms (1.00 video frame)
Interleave, preload duration     : 500 ms

pb.wtf



Скачать Банда Келли через торрент http://i56.fastpic.ru/big/2014/0421/81/dd570f3e64eed0dfcb03891aefd68b81.jpg Скачать фильм Банда Келли через торрент бесплантно в хорошем качестве Описание: Выходец из бедной семьи ирландских эмигрантов, сосланных в Австралию, Келли испытал на своей шкуре несправедливость колониальных ... 9.3 10 4
Торрент: Зарегистрирован [2014-04-21 18:09] · скачан: 129 раз
Статус: √ проверено
Размер: 2.18 GB
Как cкачать? Как скачать Банда Келли через торрент | UTorrent

% Раздел Тема Автор DL S | L
Фильмы [HD 720p, 1080p] (Хороший звук DUB, MVO) [ 7.99 GB ] Банда Келли / Ned Kelly [2003 Австралия биография BDRip 1080p] MVO [] Sub Rus Eng + Original Eng Ворон Скачать
1 | 0


Последний раз редактировалось: VintMosina (2014-04-22 15:43), всего редактировалось 1 раз

28-11-2019 20:33  

Отключить всю рекламу на сайте

    Дорогой пользователь! Огромная просьба, поблагодарите релизера, оцените раздачу и оставьте свои комментарий, если Вы скачали Банда Келли через торрент бесплатно! Внесите свою лепту в развитие PiratBit!
    Комментировать посты могут только пользователи прошедшие не сложную регистрацию
    Показать сообщения:    

    Банда Келли через торрент
    Скачать бесплатно Банда Келли
    Банда Келли скачать торрент
    Банда Келли смотреть онлайн
    Cкачать фильм Банда Келли бесплатно
    Банда Келли скачать торрент в хорошем качестве
    Банда Келли смотреть онлайн бесплатно в хорошем качестве


    Вы не можете начинать темы
    Вы не можете отвечать на сообщения
    Вы не можете редактировать свои сообщения
    Вы не можете удалять свои сообщения
    Вы не можете голосовать в опросах
    Вы не можете прикреплять файлы к сообщениям
    Вы можете скачивать файлы