Ссылка на приватное зеркало нашего сайта всего за 1$. Внимание количество ограничено!!!

2 сезон

iTunes

1 сезон

1

iTunes

iTunes

iTunes

1 сезон

RePack

30

ИГРА 18+

pack

ВАЖНО

!!Акция!!

Alien_RageХит недели

RePack

MK11
pack

Забери бонус

RePack

jed

!!Акция!!

Alien_Rage

RePack

fifa19

RePack

Assassins Creed: Odyssey

RePack

NEED FOR SPEED™ PAYBACK

4 сезон

9 сезон

Бесстыжие 9 сезон

Все сериалы

все сериалы на PB.wtf

RePack

FAR CRY 5
  

Где угодно / Everywhen (Jarand Breian Herdal) [ 2013 , Норвегия , фантастика, триллер , DVDRip ] VO (R.A.I.M) pb.wtf

Где угодно через торрент pb.wtf

Размер: 1.36 GB | Добавлен: 6 лет 6 мес. назад | Торрент скачан:493 раза
Скачать  

22-04-2014 03:37 Где угодно Скачать торрент  

Где угодно / Everywhen«Что делать, если ваша реальность была лишь одной из многих?»
Год выпуска: 2013
Страна: Норвегия
Жанр: фантастика, триллер
Продолжительность: 01:02:19
Перевод: Любительский (одноголосый)(R.A.I.M)
Субтитры: Нет
Режиссер: Йерен Брэян Хердал / Jarand Breian Herdal
В ролях:
Харальд Эвьен Фурухолмен, Хьюго Херрман, Филлип Ларсен, Рубен Лефгрен, Эллен Зиннев, Дик Тоннесен, Дик Уиттингтон, Джозеф Уиттингтон
Мировая премьера: 28 января 2013
Описание:
В не очень отдаленном будущем телепортация стала привычным делом. Миллионы людей пользуются телепортами, как мы сегодня пользуемся автобусами. Но однажды система дает сбой, и телепорты начинают отправлять ничего не подозревающих граждан в параллельные миры...
Рейтинг
imdb.com: 7.00 (79)
Качество: DVDRip
Формат: AVI
Видео кодек: DivX 5
Аудио кодек: AC3
Видео: 2222 Кбит/сек, 720*304 (2,35:1), в 25,000 кадров/сек, MPEG-4 Visual (DivX 5)
Аудио №1: Русский 448 Кбит/сек, 48,0 КГц, 16 бит, 6 каналов, AC-3
Аудио №2: Английский 448 Кбит/сек, 48,0 КГц, 16 бит, 6 каналов, AC-3
Общее
Кол-во : 279
Кол-во потоков такого типа : 1
Тип потока : General
Тип потока : Общее
Идентификатор типа потока : 0
Inform : AVI: 1,36 Гбайт, 1 ч. 2 м.
Кол-во видеопотоков : 1
Кол-во аудиопотоков : 2
Video_Format_List : MPEG-4 Visual
Video_Format_WithHint_List : MPEG-4 Visual (DivX 5)
Видеокодеки : DivX 5
Audio_Format_List : AC-3 / AC-3
Audio_Format_WithHint_List : AC-3 / AC-3
Аудиокодеки : AC3 / AC3
Полное имя : D:\Фильмы\Где угодно.avi
Имя папки : D:\Фильмы
Имя файла : Где угодно
Расширение : avi
Формат : AVI
Формат : AVI
Формат/Информация : Audio Video Interleave
Формат/Используется в : avi
Коммерческое название : AVI
Интернет-тип носителя : video/vnd.avi
Чередующаяся : Yes
Кодек : AVI
Кодек : AVI
Кодек/Информация : Audio Video Interleave
Кодек/Используется в : avi
Размер файла : 1464168448
Размер файла : 1,36 Гбайт
Размер файла : 1 Гбайт
Размер файла : 1,4 Гбайт
Размер файла : 1,36 Гбайт
Размер файла : 1,364 Гбайт
Продолжительность : 3739480
Продолжительность : 1 ч. 2 м.
Продолжительность : 1 ч. 2 м. 19 с. 480 мс.
Продолжительность : 1 ч. 2 м.
Продолжительность : 01:02:19.480
Общий поток : 3132347
Общий поток : 3132 Кбит/сек
Размер потока : 6778243
Размер потока : 6,46 Мбайт (0%)
Размер потока : 6 Мбайт
Размер потока : 6,5 Мбайт
Размер потока : 6,46 Мбайт
Размер потока : 6,464 Мбайт
Размер потока : 6,46 Мбайт (0%)
Пропорции потока : 0.00463
Заголовок : Everywhen.DVDRip.1400MB.GOLIAF.TV
Название фильма : Everywhen.DVDRip.1400MB.GOLIAF.TV
Режиссёр : -=REGIS1975=-Everywhen-=GOLIAF.TV=-
Жанр : Fantasy
Дата файла : UTC 2014-04-22 02:25:56.495
Дата файла (местная) : 2014-04-22 09:25:56.495
Дата изменения файла : UTC 2014-04-22 03:19:18.810
Дата изменения файла (местная) : 2014-04-22 10:19:18.810
Программа кодирования : VirtualDubMod 1.5.4.1 (build 2066/release)
Библиотека кодирования : VirtualDubMod build 2066/release
Библиотека кодирования : VirtualDubMod build 2066/release
Формат оригинала/Имя : Movie
Правообладатель : http://goliaf.tv/
Примечание : Rus.L1.[R.A.I.M]

Видео
Кол-во : 248
Кол-во потоков такого типа : 1
Тип потока : Video
Тип потока : Видео
Идентификатор типа потока : 0
Inform : 2222 Кбит/сек, 720*304 (2,35:1), в 25,000 кадров/сек, MPEG-4 Visual (DivX 5) (Simple@L1)
Идентификатор : 0
Идентификатор : 0
Формат : MPEG-4 Visual
Коммерческое название : MPEG-4 Visual
Профиль формата : Simple@L1
Параметр BVOP формата : No
Параметр BVOP формата : Нет
Параметр QPel формата : No
Параметр QPel формата : Нет
Параметр GMC формата : 0
Параметр GMC формата : Без точки перехода
Параметр матрицы формата : Default (H.263)
Параметр матрицы формата : Default (H.263)
Интернет-тип носителя : video/MP4V-ES
Идентификатор кодека : DX50
Идентификатор кодека/Подсказка : DivX 5
Идентификатор кодека/Ссылка : http://mediaarea.net/DX50
Кодек : DX50
Кодек : DivX 5
Кодек/Семейство : MPEG-4V
Кодек/Ссылка : http://www.divx.com
Кодек/CC : DX50
Профиль кодека : Simple@L1
Параметр пакетного потока данных кодека : No
Параметр BVOP кодека : No
Параметр QPel кодека : No
Параметр GMC кодека : 0
Параметр GMC кодека : Без точки перехода
Параметр матрицы кодека : Default (H.263)
Продолжительность : 3739480
Продолжительность : 1 ч. 2 м.
Продолжительность : 1 ч. 2 м. 19 с. 480 мс.
Продолжительность : 1 ч. 2 м.
Продолжительность : 01:02:19.480
Битрейт : 2221851
Битрейт : 2222 Кбит/сек
Ширина : 720
Ширина : 720 пикселей
Высота : 304
Высота : 304 пикселя
Пропорции пикселя : 1.000
Соотношение сторон : 2.368
Соотношение сторон : 2,35:1
Частота кадров : 25.000
Частота кадров : 25,000 кадров/сек
Счётчик кадров : 93487
Разрешение : 8
Разрешение : 8 бит
Колориметрия : 4:2:0
Цветовое пространство : YUV
Субдискретизация насыщенности : 4:2:0
Битовая глубина : 8
Битовая глубина : 8 бит
Тип развёртки : Progressive
Тип развёртки : Прогрессивная
Переплетение : PPF
Переплетение : Прогрессивная
Метод сжатия : Lossy
Метод сжатия : С потерями
Бит/(Пиксели*Кадры) : 0.406
Задержка : 0
Задержка : 00:00:00.000
Размер потока : 1038571133
Размер потока : 990 Мбайт (71%)
Размер потока : 990 Мбайт
Размер потока : 990 Мбайт
Размер потока : 990 Мбайт
Размер потока : 990,5 Мбайт
Размер потока : 990 Мбайт (71%)
Пропорции потока : 0.70932
Библиотека кодирования : Lavc51.40.4
Библиотека кодирования : Lavc51.40.4

Аудио #1
Кол-во : 245
Кол-во потоков такого типа : 2
Тип потока : Audio
Тип потока : Аудио
Идентификатор типа потока : 0
Позиция идентификатора типа потока : 1
Inform : 448 Кбит/сек, 48,0 КГц, 16 бит, 6 каналов, AC-3
Идентификатор : 1
Идентификатор : 1
Формат : AC-3
Формат/Информация : Audio Coding 3
Коммерческое название : AC-3
Расширение режима : CM (complete main)
Параметр Endianness формата : Big
Идентификатор кодека : 2000
Кодек : AC3
Кодек : AC3
Кодек/Семейство : AC3
Кодек/Информация : Dolby AC3
Кодек/CC : 2000
Продолжительность : 3739456
Продолжительность : 1 ч. 2 м.
Продолжительность : 1 ч. 2 м. 19 с. 456 мс.
Продолжительность : 1 ч. 2 м.
Продолжительность : 01:02:19.456
Вид битрейта : CBR
Вид битрейта : Постоянный
Битрейт : 448000
Битрейт : 448 Кбит/сек
Каналы : 6
Каналы : 6 каналов
Расположение каналов : Front: L C R, Side: L R, LFE
Расположение каналов : 3/2/0.1
Частота : 48000
Частота : 48,0 КГц
Количество образцов : 179493888
Разрешение : 16
Разрешение : 16 бит
Битовая глубина : 16
Битовая глубина : 16 бит
Метод сжатия : Lossy
Метод сжатия : С потерями
Задержка : 0
Задержка : 00:00:00.000
Задержка в оригинале : Stream
Задержка в оригинале : 'Сырой' поток
Задержка видео : 0
Задержка видео : 0
Размер потока : 209409536
Размер потока : 200 Мбайт (14%)
Размер потока : 200 Мбайт
Размер потока : 200 Мбайт
Размер потока : 200 Мбайт
Размер потока : 199,7 Мбайт
Размер потока : 200 Мбайт (14%)
Пропорции потока : 0.14302
Выравнивание : Aligned
Выравнивание : Соединение по промежуткам
Продолжительность промежутка : 1.00
Продолжительность промежутка : 40
Продолжительность промежутка : 40 мс. (1,00 видеокадр)
Время предзагрузки промежутка : 512
Время предзагрузки промежутка : 512 мс.
dialnorm : -27
dialnorm/String : -27 dB
compr : -0.28
compr/String : -0.28 dB
dynrng : -8.70
dynrng/String : -8.70 dB
bsid : 8
dialnorm_Average : -27
dialnorm_Average/String : -27 dB
dialnorm_Minimum : -27
dialnorm_Minimum/String : -27 dB
dialnorm_Maximum : -27
dialnorm_Maximum/String : -27 dB
dialnorm_Count : 390
compr_Average : 0.40
compr_Average/String : 0.40 dB
compr_Minimum : -8.16
compr_Minimum/String : -8.16 dB
compr_Maximum : 4.86
compr_Maximum/String : 4.86 dB
compr_Count : 390
dynrng_Average : 5.89
dynrng_Average/String : 5.89 dB
dynrng_Minimum : -22.36
dynrng_Minimum/String : -22.36 dB
dynrng_Maximum : 22.76
dynrng_Maximum/String : 22.76 dB
dynrng_Count : 390

Аудио #2
Кол-во : 243
Кол-во потоков такого типа : 2
Тип потока : Audio
Тип потока : Аудио
Идентификатор типа потока : 1
Позиция идентификатора типа потока : 2
Inform : 448 Кбит/сек, 48,0 КГц, 16 бит, 6 каналов, AC-3
Идентификатор : 2
Идентификатор : 2
Формат : AC-3
Формат/Информация : Audio Coding 3
Коммерческое название : AC-3
Расширение режима : CM (complete main)
Параметр Endianness формата : Big
Идентификатор кодека : 2000
Кодек : AC3
Кодек : AC3
Кодек/Семейство : AC3
Кодек/Информация : Dolby AC3
Кодек/CC : 2000
Продолжительность : 3739456
Продолжительность : 1 ч. 2 м.
Продолжительность : 1 ч. 2 м. 19 с. 456 мс.
Продолжительность : 1 ч. 2 м.
Продолжительность : 01:02:19.456
Вид битрейта : CBR
Вид битрейта : Постоянный
Битрейт : 448000
Битрейт : 448 Кбит/сек
Каналы : 6
Каналы : 6 каналов
Расположение каналов : Front: L C R, Side: L R, LFE
Расположение каналов : 3/2/0.1
Частота : 48000
Частота : 48,0 КГц
Количество образцов : 179493888
Разрешение : 16
Разрешение : 16 бит
Битовая глубина : 16
Битовая глубина : 16 бит
Метод сжатия : Lossy
Метод сжатия : С потерями
Задержка : 0
Задержка : 00:00:00.000
Задержка в оригинале : Stream
Задержка в оригинале : 'Сырой' поток
Задержка видео : 0
Задержка видео : 0
Размер потока : 209409536
Размер потока : 200 Мбайт (14%)
Размер потока : 200 Мбайт
Размер потока : 200 Мбайт
Размер потока : 200 Мбайт
Размер потока : 199,7 Мбайт
Размер потока : 200 Мбайт (14%)
Пропорции потока : 0.14302
Выравнивание : Aligned
Выравнивание : Соединение по промежуткам
Продолжительность промежутка : 1.00
Продолжительность промежутка : 40
Продолжительность промежутка : 40 мс. (1,00 видеокадр)
Время предзагрузки промежутка : 512
Время предзагрузки промежутка : 512 мс.
dialnorm : -27
dialnorm/String : -27 dB
compr : -0.28
compr/String : -0.28 dB
bsid : 8
dialnorm_Average : -27
dialnorm_Average/String : -27 dB
dialnorm_Minimum : -27
dialnorm_Minimum/String : -27 dB
dialnorm_Maximum : -27
dialnorm_Maximum/String : -27 dB
dialnorm_Count : 390
compr_Average : 1.78
compr_Average/String : 1.78 dB
compr_Minimum : -3.66
compr_Minimum/String : -3.66 dB
compr_Maximum : 4.54
compr_Maximum/String : 4.54 dB
compr_Count : 390
dynrng_Average : 2.71
dynrng_Average/String : 2.71 dB
dynrng_Minimum : -1.01
dynrng_Minimum/String : -1.01 dB
dynrng_Maximum : 5.46
dynrng_Maximum/String : 5.46 dB
dynrng_Count : 390

скриншот   скриншот   скриншот   скриншот   скриншот   скриншот   скриншот   скриншот   скриншот  

pb.wtf



Скачать Где угодно через торрент http://pic.kartinco.top/images/6/npyxh.jpg Скачать фильм Где угодно через торрент бесплантно в хорошем качестве Описание:В не очень отдаленном будущем телепортация стала привычным делом. Миллионы людей пользуются телепортами, как мы сегодня пользуемся ... 8.9 10 9
Торрент: Зарегистрирован [2014-04-22 03:37] · скачан: 493 раз
Статус: T временная
Размер: 1.36 GB
Как cкачать? Как скачать Где угодно через торрент | qTorrent

28-11-2019 20:33  

Отключить всю рекламу на сайте

    Дорогой пользователь! Огромная просьба, поблагодарите релизера, оцените раздачу и оставьте свои комментарий, если Вы скачали Где угодно через торрент бесплатно! Внесите свою лепту в развитие PiratBit!
    Комментировать посты могут только пользователи прошедшие не сложную регистрацию
    Показать сообщения:    

    Где угодно через торрент
    Скачать бесплатно Где угодно
    Где угодно скачать торрент
    Где угодно смотреть онлайн
    Cкачать фильм Где угодно бесплатно
    Где угодно скачать торрент в хорошем качестве
    Где угодно смотреть онлайн бесплатно в хорошем качестве


    Вы не можете начинать темы
    Вы не можете отвечать на сообщения
    Вы не можете редактировать свои сообщения
    Вы не можете удалять свои сообщения
    Вы не можете голосовать в опросах
    Вы не можете прикреплять файлы к сообщениям
    Вы можете скачивать файлы