1 сезон

1 сезон

iTunes

1

КиноПоиск HD

Кинопоиск HD

iTunes

13

1 сезон

RePack

30

Ultimate

ВАЖНО

ИГРА 18+

pack

RePack

MK11
pack

Легкие деньги

RePack

jed

RePack

fifa19

RePack

RDR2

RePack

NEED FOR SPEED™ PAYBACK

4 сезон

9 сезон

Бесстыжие 9 сезон

Все сериалы

все сериалы на PB.wtf

RePack

FAR CRY 5
  
Magnet ссылка

Голые / Golasy / The Naked (В. Светницкий) [2002, Poland, драма, комедия, DVDRip] VO + Original Pol pb.wtf

Голые через торрент pb.wtf

Размер: 1.37 GB | Добавлен: 6 лет 11 мес. назад | Торрент скачан:177 раз
Скачать  

22-04-2014 16:47 Голые Скачать торрент  

Голые / Golasy Страна: Poland
Жанр: драма, комедия
Год выпуска: 2002
Продолжительность: 01:17:18

Перевод: Любительский (одноголосый)
Cубтитры: нет
Оригинальная аудиодорожка: польский

Режиссер: В. Светницкий

В ролях: Анна Пудловска, Барбара Газиор, Агнешка Паско, Ирена Колоджей, Вальдемар Плотек

Описание: Один день обычной конторы, в котором секретарши пьют чай, работают на компьютере, сплетничают, принимают клиентов, но все они, а также их начальник и клиенты ходят в голом виде…



Качество видео: DVDRip • Формат видео: AVI
Видео: 672x496 (1.35:1), 25 fps, DivX Codec 5.2.1 build 1328 ~2006 kbps avg, 0.24 bit/pixel
Аудио 1: Russian 48 kHz, MPEG Audio, 2 ch, ~256.00 kbps avg
Аудио 2: Polish 48 kHz, MPEG Audio, 2 ch, ~256.00 kbps avg
General
Complete name : Голые.avi
Format : AVI
Format/Info : Audio Video Interleave
File size : 1.37 GiB
Duration : 1h 17mn
Overall bit rate : 2 532 Kbps
Writing application : VirtualDubMod 1.5.10.2 (build 2540/release)
Writing library : VirtualDubMod build 2540/release

Video
ID : 0
Format : MPEG-4 Visual
Format settings, BVOP : 1
Format settings, QPel : No
Format settings, GMC : No warppoints
Format settings, Matrix : Default (H.263)
Muxing mode : Packed bitstream
Codec ID : DX50
Codec ID/Hint : DivX 5
Duration : 1h 17mn
Bit rate : 2 007 Kbps
Width : 672 pixels
Height : 496 pixels
Display aspect ratio : 4:3
Frame rate : 25.000 fps
Color space : YUV
Chroma subsampling : 4:2:0
Bit depth : 8 bits
Scan type : Progressive
Compression mode : Lossy
Bits/(Pixel*Frame) : 0.241
Stream size : 1.08 GiB (79%)
Writing library : DivX 5.2.1 (WaffleDay) (UTC 2004-09-08)

Audio #1
ID : 1
Format : MPEG Audio
Format version : Version 1
Format profile : Layer 2
Codec ID : 50
Duration : 1h 17mn
Bit rate mode : Constant
Bit rate : 256 Kbps
Channel(s) : 2 channels
Sampling rate : 48.0 KHz
Compression mode : Lossy
Stream size : 141 MiB (10%)
Alignment : Aligned on interleaves
Interleave, duration : 40 ms (1.00 video frame)
Interleave, preload duration : 504 ms

Audio #2
ID : 2
Format : MPEG Audio
Format version : Version 1
Format profile : Layer 2
Codec ID : 50
Duration : 1h 17mn
Bit rate mode : Constant
Bit rate : 256 Kbps
Channel(s) : 2 channels
Sampling rate : 48.0 KHz
Compression mode : Lossy
Stream size : 141 MiB (10%)
Alignment : Aligned on interleaves
Interleave, duration : 40 ms (1.00 video frame)
Interleave, preload duration : 504 ms
скриншот  
скриншот   скриншот   скриншот  
pb.wtf



Скачать Голые через торрент http://i3.fastpic.ru/big/2009/1023/f9/135aef22d8a743447bf1c4729dbf51f9.jpg Скачать фильм Голые через торрент бесплантно в хорошем качестве Описание: Один день обычной конторы, в котором секретарши пьют чай, работают на компьютере, сплетничают, принимают клиентов, но все они, а ... 8.4 10 11
Торрент: Зарегистрирован [2014-04-22 16:47] · скачан: 177 раз
Статус: √ проверено
Размер: 1.37 GB
Как cкачать? Как скачать Голые через торрент | UTorrent

28-11-2019 20:33  

Отключить всю рекламу на сайте

    Дорогой пользователь! Огромная просьба, поблагодарите релизера, оцените раздачу и оставьте свои комментарий, если Вы скачали Голые через торрент бесплатно! Внесите свою лепту в развитие PiratBit!
    Комментировать посты могут только пользователи прошедшие не сложную регистрацию
    Показать сообщения:    

    Голые через торрент
    Скачать бесплатно Голые
    Голые скачать торрент
    Голые смотреть онлайн
    Cкачать фильм Голые бесплатно
    Голые скачать торрент в хорошем качестве
    Голые смотреть онлайн бесплатно в хорошем качестве


    Вы не можете начинать темы
    Вы не можете отвечать на сообщения
    Вы не можете редактировать свои сообщения
    Вы не можете удалять свои сообщения
    Вы не можете голосовать в опросах
    Вы не можете прикреплять файлы к сообщениям
    Вы можете скачивать файлы