Всегда рабочее зеркало просто перед .vidak.icu напиши любое слово или цифру, Пример http://ybh.vidak.icu

>

7.4

iTunes

7.4

2 сезон

9.4

1 сезон

1

7.4

2 сезон

7.2

iTunes

6.0

MVO

13

6.1

iTunes

8.3

Пиратка

30

ULTIMATE

pack

9.9

Лицензия

ВАЖНО

ИГРА 18+

pack

7.3

RePack

MK11

7.7

RePack

jed

7.8

RePack

fifa19

8.5

RePack

RDR2

RePack

NEED FOR SPEED™ PAYBACK

1 сезон

9 сезон

Бесстыжие 9 сезон

Все сериалы

все сериалы на PB.wtf

RePack

FAR CRY 5

Anonymous, доброе утро, мы катастрофически не успеваем собрать деньги на оплату серверов, помогите нам пожалуйста 5,10,15р., для нас важна любая помощь . В качестве благодарности мы отключим Вам всю рекламу на сайте (укажите свой ник в строку Ваше имя)!

×
  
Magnet ссылка

Волк / Wolf (Джим Тайхутту) [2013 г., триллер, драма, криминал, HDRip, Авторский одноголосый (Д. Есарев)] pb.wtf

Волк через торрент pb.wtf

Размер: 2.19 GB | Добавлен: 7 лет 7 мес. назад | Торрент скачан:246 раз
Смотреть онлайн Волк | Скачать    Ребята, помогите собрать деньги на оплату серверов!!!

22-04-2014 17:44 Волк Скачать торрент  

Волк / Wolf
Год выпуска: 2013
Страна: Нидерланды / Habbekrats
Жанр: триллер, драма, криминал
Продолжительность: 02:02:38
Перевод: Авторский одноголосый (Д. Есарев)

Режиссер: Джим Тайхутту

В ролях: Стеф Кёйперс, Слиман Дази, Якоб Дервиг, Марван Кензари, Бо Маертен, Бьорн Ниссен

Описание: Маджид является талантливым кикбоксером. Его боевая доблесть приносит ему известность как на ринге, так и вне его. Но постепенно граница между кикбоксингом и преступной деятельностью начинает размываться, и Маджид перестает понимать, чего же он хочет на самом деле…

Качество: BDRip (Рип с BD-Remux 1080p)
Формат: AVI
Видео кодек: XviD
Аудио кодек: AC3
Видео: 720x384 (1.88:1), 24 fps, XviD build 50 ~2103 kbps avg, 0.32 bit/pixel
Аудио: 48 kHz, AC3 Dolby Digital, 3/2 (L,C,R,l,r) + LFE ch, ~448 kbps

скриншот   скриншот   скриншот   скриншот   скриншот  

Общее
Полное имя : H:\кино\Волк.2013.BDRip.avi
Формат : AVI
Формат/Информация : Audio Video Interleave
Профиль формата : OpenDML
Размер файла : 2,19 Гбайт
Продолжительность : 2 ч. 2 м.
Общий поток : 2558 Кбит/сек
Программа кодирования : VirtualDubMod 1.5.10.3 | www.virtualdub-fr.org || (build 2550/release)
Библиотека кодирования : VirtualDubMod build 2550/release

Видео
Идентификатор : 0
Формат : MPEG-4 Visual
Профиль формата : Advanced Simple@L5
Параметр BVOP формата : 2
Параметр QPel формата : Нет
Параметр GMC формата : Без точки перехода
Параметр матрицы формата : Default (H.263)
Идентификатор кодека : XVID
Идентификатор кодека/Подсказка : XviD
Продолжительность : 2 ч. 2 м.
Битрейт : 2098 Кбит/сек
Ширина : 720 пикселей
Высота : 384 пикселя
Соотношение сторон : 1,85:1
Частота кадров : 24,000 кадра/сек
Цветовое пространство : YUV
Субдискретизация насыщенности : 4:2:0
Битовая глубина : 8 бит
Тип развёртки : Прогрессивная
Метод сжатия : С потерями
Бит/(Пиксели*Кадры) : 0.316
Размер потока : 1,80 Гбайт (82%)
Библиотека кодирования : XviD 1.2.1 (UTC 2008-12-04)

Аудио
Идентификатор : 1
Формат : AC-3
Формат/Информация : Audio Coding 3
Расширение режима : CM (complete main)
Параметр Endianness формата : Big
Идентификатор кодека : 2000
Продолжительность : 2 ч. 2 м.
Вид битрейта : Постоянный
Битрейт : 448 Кбит/сек
Каналы : 6 каналов
Расположение каналов : Front: L C R, Side: L R, LFE
Частота : 48,0 КГц
Битовая глубина : 16 бит
Метод сжатия : С потерями
Размер потока : 393 Мбайт (18%)
Выравнивание : Разделение по промежуткам
Продолжительность промежутка : 42 мс. (1,00 видеокадр)
Время предзагрузки промежутка : 500 мс.

pb.wtf



Скачать Волк через торрент https://pic1.kartinco.top/images/61/csbr2.jpg Скачать, смотреть онлайн Волк бесплантно в хорошем качестве Описание: Маджид является талантливым кикбоксером. Его боевая доблесть приносит ему известность как на ринге, так и вне его. Но постепенно ... 9.9 10 9
Info! Золотая раздача, скачанное не засчитывается.
Торрент: Зарегистрирован [2014-06-09 17:22] · скачан: 246 раз
Статус: √ проверено
Размер: 2.19 GB
Как cкачать? Как скачать Волк через торрент | UTorrent

% Раздел Тема Автор DL S | L
Иностранные мультфильмы [ 1.46 GB ] Легенда о волках / Wolfwalkers [2020 мультфильм BDRip] DUB [Пифагор / Apple TV bober100 Скачать
2 | 0
Аниме [HD 720p, 1080p] [ 3.51 GB ] Ведьмак: Кошмар волка / The Witcher: Nightmare of the Wolf [2021 мультфильм WEB-DL 1080p] killermax2013 Скачать
338 | 3
Аниме [HD 720p, 1080p] [ 1.91 GB ] Ведьмак: Кошмар волка / The Witcher: Nightmare of the Wolf [2021 мультфильм WEB-DL 720p] killermax2013 Скачать
3 | 0
Фильмы [HD 720p, 1080p] (Хороший звук DUB, MVO) [ 5.17 GB ] Волк_одиночка / Cry Wolf [2005 BDRip 720p ] winchester00100010 Скачать
1 | 0
Фильмы 2013 [DVDrip, WEB-DLRip, HDrip] [ 2.9 GB ] Волк с Уолл-стрит / The Wolf of Wall Street [2013 биография HDRip-AVC] [DVO] killermax2013 Скачать
1 | 0
Фильмы 2019-2020 [DVDrip, WEB-DLRip, HDrip] (DUB, MVO) [ 1.46 GB ] Самоизоляция / Час волка / The Wolf Hour [2019 HDRip] MVO [IVI] bober100 Скачать
1 | 0
Фильмы [HD 720p, 1080p] (Хороший звук DUB, MVO) [ 5.2 GB ] Самоизоляция / Час волка / The Wolf Hour [2019 BDRip 720p] MVO [IVI] bober100 Скачать
1 | 0


Последний раз редактировалось: coc900 (2014-06-09 17:32), всего редактировалось 2 раз(а)

28-11-2019 20:33  

Отключить всю рекламу на сайте

23-04-2014 02:33 Волк Скачать торрент  

Описание: Маджид является талантливым кикбоксером. Его боевая доблесть приносит ему известность как на ринге, так и вне его. Но постепенно граница между кикбоксингом и преступной деятельностью начинает размываться, и Маджид перестает понимать, чего же он хочет на самом деле…

какой заманчивый сюжет, мммм...pb.wtf



24-04-2014 11:34 Волк Скачать торрент  

На удивление порадовал "кошерный" любительский перевод... Нафоне всяческих "хихикающих лекарей" и прочих людей с нарушениями дикции - данный товарисч не напрягал мои барабанные перепонки... а по фильму скажу - порадовал... добротный европейский фильм с не тупым сюжетом и не плохой игрой актеров...pb.wtf



09-06-2014 17:26 Волк Скачать торрент  

Релиз обновлен!Просьба перекачать торрент файлpb.wtf



    Дорогой пользователь! Огромная просьба, поблагодарите релизера, оцените раздачу и оставьте свои комментарий, если Вы скачали Волк через торрент бесплатно!
    Комментировать посты могут только пользователи прошедшие не сложную регистрацию
    Показать сообщения:    

    Волк через торрент
    Скачать бесплатно Волк
    Волк скачать торрент
    Волк смотреть онлайн
    Cкачать фильм Волк бесплатно
    Волк скачать торрент в хорошем качестве
    Волк смотреть онлайн бесплатно в хорошем качестве


    Вы не можете начинать темы
    Вы не можете отвечать на сообщения
    Вы не можете редактировать свои сообщения
    Вы не можете удалять свои сообщения
    Вы не можете голосовать в опросах
    Вы не можете прикреплять файлы к сообщениям
    Вы можете скачивать файлы