Ссылка на приватное зеркало нашего сайта всего за 1$. Внимание количество ограничено!!!

2 сезон

iTunes

1 сезон

1

iTunes

iTunes

iTunes

1 сезон

RePack

30

ИГРА 18+

pack

ВАЖНО

!!Акция!!

Alien_RageХит недели

RePack

MK11
pack

Забери бонус

RePack

jed

!!Акция!!

Alien_Rage

RePack

fifa19

RePack

Assassins Creed: Odyssey

RePack

NEED FOR SPEED™ PAYBACK

4 сезон

9 сезон

Бесстыжие 9 сезон

Все сериалы

все сериалы на PB.wtf

RePack

FAR CRY 5
  

Зажги меня / Plush (Кэтрин Хардвик / Catherine Hardwicke) [2013, США, триллер, WEB-DLRip, Любительский (одноголосый)[Ryc99] pb.wtf

Зажги меня через торрент pb.wtf

Размер: 1.46 GB | Добавлен: 6 лет 6 мес. назад | Торрент скачан:102 раза
Скачать  

13-01-2014 02:50 Зажги меня Скачать торрент  


Зажги меня / Plush


Год выпуска:2013
Страна:США
Жанр:триллер
Продолжительность: 01:39:21
Перевод:Любительский (одноголосый)[Ryc99]

Субтитры: Нет
    Режиссер:Кэтрин Хардвик / Catherine Hardwicke
    В ролях:Эмили Браунинг,Шеррил Кларк / Sherryl Clark, Стюарт Форд / Stuart Ford, Кэтрин Хардвик / Catherine Hardwicke, Чарльз М. Барсамиан / Charles M. Barsamian, Майкл Робэн / Michael Roban

    Мировая премьера:13 сентября 2013 Премьера (РФ):27 февраля 2014
    Описание:
    После того, как брат Хейли, восходящей звезды рока, погиб от передозировки, ее жизнь пошла по наклонной. В результате ее второй альбом становится творческим и коммерческим провалом. Она находит вдохновение после того, как в группу пришел гитарист Энцо, который своим позитивом и свежими идеями вытащил девушку из состояния полузабытья. Но вскоре их сотрудничество выходит за грань профессиональных отношений и выливается в ночь страстной любви...


    Качество:WEB-DLRip
    Формат:AVI
    Видео кодек: XviD
    Аудио кодек:AC3
    Видео: XviD, 720x400 (16:9), 1709 kbps, 23,976 fps, 0,248 bpp
    Аудио: AC3 / 5.1 / 48 kHz / 384 kbps / 16 bit

Код:

Общее
Полное имя                               : D:ТорентыPlush.2013.L1.WEB-DLRip.1400Mb.avi
Формат                                   : AVI
Формат/Информация                        : Audio Video Interleave
Размер файла                             : 1,46 Гбайт
Продолжительность                        : 1 ч. 39 м.
Общий поток                              : 2103 Кбит/сек
Программа кодирования                    : VirtualDubMod 1.5.10.2 (build 2540/release)
Библиотека кодирования                   : VirtualDubMod build 2540/release

Видео
Идентификатор                            : 0
Формат                                   : MPEG-4 Visual
Профиль формата                          : Advanced Simple@L5
Параметр BVOP формата                    : 2
Параметр QPel формата                    : Нет
Параметр GMC формата                     : Без точки перехода
Параметр матрицы формата                 : Default (H.263)
Идентификатор кодека                     : XVID
Идентификатор кодека/Подсказка           : XviD
Продолжительность                        : 1 ч. 39 м.
Битрейт                                  : 1710 Кбит/сек
Ширина                                   : 720 пикселей
Высота                                   : 400 пикселей
Соотношение сторон                       : 16:9
Частота кадров                           : 23,976 кадра/сек
Цветовое пространство                    : YUV
Субдискретизация насыщенности            : 4:2:0
Битовая глубина                          : 8 бит
Тип развёртки                            : Прогрессивная
Метод сжатия                             : С потерями
Бит/(Пиксели*Кадры)                      : 0.248
Размер потока                            : 1,19 Гбайт (81%)
Библиотека кодирования                   : XviD 1.2.1 (UTC 2008-12-04)

Аудио
Идентификатор                            : 1
Формат                                   : AC-3
Формат/Информация                        : Audio Coding 3
Расширение режима                        : CM (complete main)
Параметр Endianness формата              : Big
Идентификатор кодека                     : 2000
Продолжительность                        : 1 ч. 39 м.
Вид битрейта                             : Постоянный
Битрейт                                  : 384 Кбит/сек
Каналы                                   : 6 каналов
Расположение каналов                     : Front: L C R, Side: L R, LFE
Частота                                  : 48,0 КГц
Битовая глубина                          : 16 бит
Метод сжатия                             : С потерями
Размер потока                            : 273 Мбайт (18%)
Выравнивание                             : Разделение по промежуткам
Продолжительность промежутка             : 42  мс. (1,00 видеокадр)
Время предзагрузки промежутка            : 500  мс.


Скриншоты:

Трейлеры к фильмам [2014]

© Оформление by Vetal
pb.wtf



Скачать Зажги меня через торрент http://pic.kartinco.top/images/6/ordi9.jpg Скачать фильм Зажги меня через торрент бесплантно в хорошем качестве Описание:После того, как брат Хейли, восходящей звезды рока, погиб от передозировки, ее жизнь пошла по наклонной. В результате ее второй ... 10 10 11
Торрент: Зарегистрирован [2014-04-22 20:47] · скачан: 102 раз
Статус: √ проверено
Размер: 1.46 GB
Как cкачать? Как скачать Зажги меня через торрент | qTorrent

% Раздел Тема Автор DL S | L
Фильмы (Blu-ray, BD-Remux, HDDVD) [ 16.46 GB ] Зажги меня / Plush [2013 BD-Remux Любительский одноголосый] Бумер Скачать
1 | 0


Последний раз редактировалось: Ворон (2014-01-19 10:22), всего редактировалось 1 раз

28-11-2019 20:33  

Отключить всю рекламу на сайте

13-01-2014 05:57 Зажги меня Скачать торрент  

в ролях нету той кто на аваторке)) Эмили)pb.wtf



19-01-2014 10:02 Зажги меня Скачать торрент  

Kesady писал(а):

в ролях нету той кто на аваторке)) Эмили)

Автор раздачи с правами на её имя не разобрался.pb.wtf



19-01-2014 10:22 Зажги меня Скачать торрент  

Kesady
Уже есть pb.wtf



    Дорогой пользователь! Огромная просьба, поблагодарите релизера, оцените раздачу и оставьте свои комментарий, если Вы скачали Зажги меня через торрент бесплатно! Внесите свою лепту в развитие PiratBit!
    Комментировать посты могут только пользователи прошедшие не сложную регистрацию
    Показать сообщения:    

    Зажги меня через торрент
    Скачать бесплатно Зажги меня
    Зажги меня скачать торрент
    Зажги меня смотреть онлайн
    Cкачать фильм Зажги меня бесплатно
    Зажги меня скачать торрент в хорошем качестве
    Зажги меня смотреть онлайн бесплатно в хорошем качестве


    Вы не можете начинать темы
    Вы не можете отвечать на сообщения
    Вы не можете редактировать свои сообщения
    Вы не можете удалять свои сообщения
    Вы не можете голосовать в опросах
    Вы не можете прикреплять файлы к сообщениям
    Вы можете скачивать файлы