Ссылка на приватное зеркало нашего сайта всего за 1$. Внимание количество ограничено!!!

2 сезон

iTunes

1 сезон

1

2 сезон

2 сезон

iTunes

1 сезон

RePack

30

Ultimate

ВАЖНО

ИГРА 18+

pack

RePack

MK11
pack

Забери бонус

RePack

jed

!!Акция!!

Alien_Rage

RePack

fifa19

RePack

Assassins Creed: Odyssey

RePack

NEED FOR SPEED™ PAYBACK

4 сезон

9 сезон

Бесстыжие 9 сезон

Все сериалы

все сериалы на PB.wtf

RePack

FAR CRY 5
  

Страсть / Passion (Брайан Де Пальма) (2012, Триллер, драма, криминал, детектив, VO, BDRemux 1080p) pb.wtf

Страсть через торрент pb.wtf

Размер: 23.3 GB | Добавлен: 6 лет 7 мес. назад | Торрент скачан:57 раз
Скачать  

06-03-2014 07:24 Страсть Скачать торрент  

Название: Страсть
Оригинальное название: Passion
Год выхода: 2012
Жанр: Триллер, драма, криминал, детектив

Режиссер: Брайан Де Пальма

В ролях: Рэйчел МакАдамс, Нуми Рапас, Каролине Херфурт, Пол Андерсон, Райнер Бок, Беньямин Задлер, Майкл Рочопф, Макс Урлахер, Доминик Рааке, Тристан В. Пюттер

Описание:
История двух девушек, топ-менеджеров крупной компании. Они крутили роман с одним и тем же сотрудником, причем обе одновременно уважают и ненавидят друг друга. В один прекрасный день одна сильно оскорбляет другую перед всеми коллегами… девушка решает отомстить.


Страна: Германия, Франция, Canal+ [fr]
Продолжительность: 01:41:04
Перевод: Любительский двухголосый (Green Tea) / Любительский одноголосый (den904)

Качество: Blu-Ray Remux 1080p
Формат: MKV
Видео кодек: AVC
Аудио кодек: AC3 / DTS-HD MA
Видео: MPEG-4 AVC, 29.4 Мбит/с, 1920x1080, 23.976 кадр/с
Аудио: Русский: 6 ch, 448 Кбит/с, 48,0 КГц
Аудио: Французкий: 6 ch, 448 Кбит/с, 48,0 КГц
Аудио: Английский: DTS-HD MA, 6 ch, 1561 Кбит/с, 48,0 КГц
Субтитры: Английские, французские
Полное имя : E:Раздачи_EPassion.2012.BDRemux.1080p.NovaLan.mkv
Формат : Matroska
Версия формата : Version 4 / Version 2
Размер файла : 23,3 Гбайт
Продолжительность : 1 ч. 41 м.
Режим общего битрейта : Переменный
Общий поток : 33,0 Мбит/сек
Название фильма : Passion 2012 - NovaLan
Дата кодирования : UTC 2014-03-06 02:51:28
Программа кодирования : mkvmerge v6.8.0 ('Theme for Great Cities') 64bit built on Mar 2 2014 21:34:26
Библиотека кодирования : libebml v1.3.0 + libmatroska v1.4.1

Видео
Идентификатор : 1
Формат : AVC
Формат/Информация : Advanced Video Codec
Профиль формата : High@L4.1
Параметр CABAC формата : Да
Параметр ReFrames формата : 2 кадра
Идентификатор кодека : V_MPEG4/ISO/AVC
Продолжительность : 1 ч. 41 м.
Вид битрейта : Переменный
Битрейт : 29,4 Мбит/сек
Ширина : 1920 пикселей
Высота : 1080 пикселей
Соотношение сторон : 16:9
Частота кадров : 23,976 кадра/сек
Цветовое пространство : YUV
Субдискретизация насыщенности : 4:2:0
Битовая глубина : 8 бит
Тип развёртки : Прогрессивная
Бит/(Пиксели*Кадры) : 0.592
Размер потока : 20,8 Гбайт (89%)
Заголовок : Passion 2012 - NovaLan
Default : Да
Forced : Нет

Аудио #1
Идентификатор : 2
Формат : AC-3
Формат/Информация : Audio Coding 3
Расширение режима : CM (complete main)
Параметр Endianness формата : Big
Идентификатор кодека : A_AC3
Продолжительность : 1 ч. 41 м.
Вид битрейта : Постоянный
Битрейт : 448 Кбит/сек
Каналы : 6 каналов
Расположение каналов : Front: L C R, Side: L R, LFE
Частота : 48,0 КГц
Битовая глубина : 16 бит
Метод сжатия : С потерями
Размер потока : 324 Мбайт (1%)
Язык : Russian
Default : Да
Forced : Нет

Аудио #2
Идентификатор : 3
Формат : AC-3
Формат/Информация : Audio Coding 3
Расширение режима : CM (complete main)
Параметр Endianness формата : Big
Идентификатор кодека : A_AC3
Продолжительность : 1 ч. 41 м.
Вид битрейта : Постоянный
Битрейт : 448 Кбит/сек
Каналы : 6 каналов
Расположение каналов : Front: L C R, Side: L R, LFE
Частота : 48,0 КГц
Битовая глубина : 16 бит
Метод сжатия : С потерями
Размер потока : 324 Мбайт (1%)
Язык : Russian
Default : Нет
Forced : Нет

Аудио #3
Идентификатор : 4
Формат : AC-3
Формат/Информация : Audio Coding 3
Расширение режима : CM (complete main)
Параметр Endianness формата : Big
Идентификатор кодека : A_AC3
Продолжительность : 1 ч. 41 м.
Вид битрейта : Постоянный
Битрейт : 448 Кбит/сек
Каналы : 6 каналов
Расположение каналов : Front: L C R, Side: L R, LFE
Частота : 48,0 КГц
Битовая глубина : 16 бит
Метод сжатия : С потерями
Размер потока : 324 Мбайт (1%)
Язык : French
Default : Нет
Forced : Нет

Аудио #4
Идентификатор : 5
Формат : DTS
Формат/Информация : Digital Theater Systems
Профиль формата : MA / Core
Идентификатор кодека : A_DTS
Продолжительность : 1 ч. 41 м.
Вид битрейта : Переменный
Битрейт : 1561 Кбит/сек / 1510 Кбит/сек
Каналы : 6 каналов
Расположение каналов : Front: L C R, Side: L R, LFE
Частота : 48,0 КГц
Битовая глубина : 16 бит
Метод сжатия : Без потерь / Lossy
Язык : English
Default : Нет
Forced : Нет

Текст #1
Идентификатор : 6
Формат : PGS
Режим смешивания : zlib
Идентификатор кодека : S_HDMV/PGS
Идентификатор кодека/Информация : The same subtitle format used on BDs/HD-DVDs
Язык : English
Default : Нет
Forced : Нет

Текст #2
Идентификатор : 7
Формат : PGS
Режим смешивания : zlib
Идентификатор кодека : S_HDMV/PGS
Идентификатор кодека/Информация : The same subtitle format used on BDs/HD-DVDs
Язык : French
Default : Нет
Forced : Нет

Текст #3
Идентификатор : 8
Формат : PGS
Режим смешивания : zlib
Идентификатор кодека : S_HDMV/PGS
Идентификатор кодека/Информация : The same subtitle format used on BDs/HD-DVDs
Язык : French
Default : Нет
Forced : Нет

Меню
00:00:00.000 : en:Chapter 1
00:04:41.865 : en:Chapter 2
00:14:41.297 : en:Chapter 3
00:28:18.154 : en:Chapter 4
00:37:44.596 : en:Chapter 5
00:50:05.585 : en:Chapter 6
00:58:31.675 : en:Chapter 7
01:09:59.487 : en:Chapter 8
01:21:31.177 : en:Chapter 9
01:32:04.310 : en:Chapter 10
01:37:07.613 : en:Chapter 11
pb.wtf



Скачать Страсть через торрент http://i33.fastpic.ru/big/2014/0306/97/f27e6532bd7e7de732b9e3c0ace47d97.jpg Скачать фильм Страсть через торрент бесплантно в хорошем качестве Описание: История двух девушек, топ-менеджеров крупной компании. Они крутили роман с одним и тем же сотрудником, причем обе одновременно ... 9.8 10 5
Торрент: Зарегистрирован [2014-04-22 20:48] · скачан: 57 раз
Статус: √ проверено
Размер: 23.3 GB
Как cкачать? Как скачать Страсть через торрент | qTorrent

% Раздел Тема Автор DL S | L
Гонзо [ 1.07 GB ] Алая Горячая Страсть / Red Hot Passion [2018 All Sex Oral Gonzo Legal Teen Facial Couples WEB-DLRip] Split Scenes sheker187 Скачать
1 | 0
Фильмы (HD 720p, 1080p) (48-60 fps) [ 10.98 GB ] Страсти Христовы / The Passion of the Christ [2004 история BDRip 720p / 60 FPS AUS Transfer MVO DVO AVO Original] Tiberiumsun69 Скачать
5 | 0
Фильмы [HD 720p, 1080p] (Хороший звук DUB, MVO) [ 4.73 GB ] Страсти Христовы / The Passion of the Christ [2004 BDRip 1080p [HEVC] MVO ] Мичман37 Скачать
1 | 0
Фильмы без перевода [ 24.1 GB ] Страсти Жанны д`Арк / La passion de Jeanne d'Arc [1928 биография история BD Remux 1080р] Sub bober100 Скачать
1 | 0
Фильмы без перевода [ 32.39 GB ] Тихая страсть / A Quiet Passion [2016 биография BD Remux] [Оригинал-ENG] smaster Скачать
1 | 0
Порно фильмы HD [ 2.68 GB ] Страсть к моде / Private Gold 209: Fashion Passion [2016 All Sex Big Tits Anal Threesome WEB-DL 720p ENG] PROCTOLOG Скачать
1 | 0
Порно фильмы с сюжетом [ 2.65 GB ] Вечная Страсть / Eternal Passion [2016 Couples Feature WEB-DLRip Оригинальный] Pir@tya2010 Скачать
1 | 0

28-11-2019 20:33  

Отключить всю рекламу на сайте

23-04-2014 02:28 Страсть Скачать торрент  

красивые актерыpb.wtf



    Дорогой пользователь! Огромная просьба, поблагодарите релизера, оцените раздачу и оставьте свои комментарий, если Вы скачали Страсть через торрент бесплатно! Внесите свою лепту в развитие PiratBit!
    Комментировать посты могут только пользователи прошедшие не сложную регистрацию
    Показать сообщения:    

    Страсть через торрент
    Скачать бесплатно Страсть
    Страсть скачать торрент
    Страсть смотреть онлайн
    Cкачать фильм Страсть бесплатно
    Страсть скачать торрент в хорошем качестве
    Страсть смотреть онлайн бесплатно в хорошем качестве


    Вы не можете начинать темы
    Вы не можете отвечать на сообщения
    Вы не можете редактировать свои сообщения
    Вы не можете удалять свои сообщения
    Вы не можете голосовать в опросах
    Вы не можете прикреплять файлы к сообщениям
    Вы можете скачивать файлы